  0
SECTION
  2
HEADER
  9
$ACADVER
  1
AC1015
  9
$ACADMAINTVER
 70
     6
  9
$DWGCODEPAGE
  3
DOS932
  9
$INSBASE
 10
0.0
 20
0.0
 30
0.0
  9
$EXTMIN
 10
0.0
 20
0.0
 30
0.0
  9
$EXTMAX
 10
8400.0
 20
5940.0
 30
0.0
  9
$LIMMIN
 10
0.0
 20
0.0
  9
$LIMMAX
 10
8400.0
 20
5940.0
  9
$ORTHOMODE
 70
     0
  9
$REGENMODE
 70
     1
  9
$FILLMODE
 70
     1
  9
$QTEXTMODE
 70
     0
  9
$MIRRTEXT
 70
     1
  9
$LTSCALE
 40
5.0
  9
$ATTMODE
 70
     1
  9
$TEXTSIZE
 40
100.0
  9
$TRACEWID
 40
0.05
  9
$TEXTSTYLE
  7
Standard
  9
$CLAYER
  8
0
  9
$CELTYPE
  6
Continuous
  9
$CECOLOR
 62
   256
  9
$CELTSCALE
 40
1.0
  9
$DISPSILH
 70
     0
  9
$DIMSCALE
 40
20.0
  9
$DIMASZ
 40
2.5
  9
$DIMEXO
 40
0.5
  9
$DIMDLI
 40
8.0
  9
$DIMRND
 40
0.0
  9
$DIMDLE
 40
0.0
  9
$DIMEXE
 40
0.5
  9
$DIMTP
 40
0.0
  9
$DIMTM
 40
0.0
  9
$DIMTXT
 40
4.0
  9
$DIMCEN
 40
0.09
  9
$DIMTSZ
 40
0.0
  9
$DIMTOL
 70
     0
  9
$DIMLIM
 70
     0
  9
$DIMTIH
 70
     0
  9
$DIMTOH
 70
     0
  9
$DIMSE1
 70
     0
  9
$DIMSE2
 70
     0
  9
$DIMTAD
 70
     3
  9
$DIMZIN
 70
     0
  9
$DIMBLK
  1

  9
$DIMASO
 70
     1
  9
$DIMSHO
 70
     1
  9
$DIMPOST
  1

  9
$DIMAPOST
  1

  9
$DIMALT
 70
     0
  9
$DIMALTD
 70
     2
  9
$DIMALTF
 40
25.4
  9
$DIMLFAC
 40
1.0
  9
$DIMTOFL
 70
     1
  9
$DIMTVP
 40
0.7
  9
$DIMTIX
 70
     0
  9
$DIMSOXD
 70
     0
  9
$DIMSAH
 70
     0
  9
$DIMBLK1
  1

  9
$DIMBLK2
  1

  9
$DIMSTYLE
  2
Standard
  9
$DIMCLRD
 70
     0
  9
$DIMCLRE
 70
     0
  9
$DIMCLRT
 70
     0
  9
$DIMTFAC
 40
0.5
  9
$DIMGAP
 40
0.0
  9
$DIMJUST
 70
     0
  9
$DIMSD1
 70
     0
  9
$DIMSD2
 70
     0
  9
$DIMTOLJ
 70
     1
  9
$DIMTZIN
 70
     0
  9
$DIMALTZ
 70
     0
  9
$DIMALTTZ
 70
     0
  9
$DIMUPT
 70
     0
  9
$DIMDEC
 70
     2
  9
$DIMTDEC
 70
     4
  9
$DIMALTU
 70
     2
  9
$DIMALTTD
 70
     2
  9
$DIMTXSTY
  7
Standard
  9
$DIMAUNIT
 70
     0
  9
$DIMADEC
 70
     0
  9
$DIMALTRND
 40
0.0
  9
$DIMAZIN
 70
     0
  9
$DIMDSEP
 70
     0
  9
$DIMATFIT
 70
     3
  9
$DIMFRAC
 70
     0
  9
$DIMLDRBLK
  1

  9
$DIMLUNIT
 70
     2
  9
$DIMLWD
 70
     0
  9
$DIMLWE
 70
     0
  9
$DIMTMOVE
 70
     0
  9
$LUNITS
 70
     2
  9
$LUPREC
 70
     4
  9
$SKETCHINC
 40
0.1
  9
$FILLETRAD
 40
0.0
  9
$AUNITS
 70
     0
  9
$AUPREC
 70
     0
  9
$MENU
  1
acad
  9
$ELEVATION
 40
0.0
  9
$PELEVATION
 40
0.0
  9
$THICKNESS
 40
0.0
  9
$LIMCHECK
 70
     0
  9
$CHAMFERA
 40
0.0
  9
$CHAMFERB
 40
0.0
  9
$CHAMFERC
 40
0.0
  9
$CHAMFERD
 40
0.0
  9
$SKPOLY
 70
     0
  9
$TDCREATE
 40
2452857.438368056
  9
$TDUCREATE
 40
0.000000000
  9
$TDUPDATE
 40
2452857.438368056
  9
$TDUUPDATE
 40
0.000000000
  9
$TDINDWG
 40
0.0000000000
  9
$TDUSRTIMER
 40
0.0000000000
  9
$USRTIMER
 70
     1
  9
$ANGBASE
 50
0.0
  9
$ANGDIR
 70
     0
  9
$PDMODE
 70
     0
  9
$PDSIZE
 40
0.0
  9
$PLINEWID
 40
0.0
  9
$SPLFRAME
 70
     0
  9
$SPLINETYPE
 70
     6
  9
$SPLINESEGS
 70
     8
  9
$HANDSEED
  5
41E
  9
$SURFTAB1
 70
     6
  9
$SURFTAB2
 70
     6
  9
$SURFTYPE
 70
     6
  9
$SURFU
 70
     6
  9
$SURFV
 70
     6
  9
$UCSBASE
  2

  9
$UCSNAME
  2

  9
$UCSORG
 10
0.0
 20
0.0
 30
0.0
  9
$UCSXDIR
 10
1.0
 20
0.0
 30
0.0
  9
$UCSYDIR
 10
0.0
 20
1.0
 30
0.0
  9
$UCSORTHOREF
  2

  9
$UCSORTHOVIEW
 70
     0
  9
$UCSORGTOP
 10
0.0
 20
0.0
 30
0.0
  9
$UCSORGBOTTOM
 10
0.0
 20
0.0
 30
0.0
  9
$UCSORGLEFT
 10
0.0
 20
0.0
 30
0.0
  9
$UCSORGRIGHT
 10
0.0
 20
0.0
 30
0.0
  9
$UCSORGFRONT
 10
0.0
 20
0.0
 30
0.0
  9
$UCSORGBACK
 10
0.0
 20
0.0
 30
0.0
  9
$PUCSBASE
  2

  9
$PUCSNAME
  2

  9
$PUCSORG
 10
0.0
 20
0.0
 30
0.0
  9
$PUCSXDIR
 10
1.0
 20
0.0
 30
0.0
  9
$PUCSYDIR
 10
0.0
 20
1.0
 30
0.0
  9
$PUCSORTHOREF
  2

  9
$PUCSORTHOVIEW
 70
     0
  9
$PUCSORGTOP
 10
0.0
 20
0.0
 30
0.0
  9
$PUCSORGBOTTOM
 10
0.0
 20
0.0
 30
0.0
  9
$PUCSORGLEFT
 10
0.0
 20
0.0
 30
0.0
  9
$PUCSORGRIGHT
 10
0.0
 20
0.0
 30
0.0
  9
$PUCSORGFRONT
 10
0.0
 20
0.0
 30
0.0
  9
$PUCSORGBACK
 10
0.0
 20
0.0
 30
0.0
  9
$USERI1
 70
     0
  9
$USERI2
 70
     0
  9
$USERI3
 70
     0
  9
$USERI4
 70
     0
  9
$USERI5
 70
     0
  9
$USERR1
 40
0.0
  9
$USERR2
 40
0.0
  9
$USERR3
 40
0.0
  9
$USERR4
 40
0.0
  9
$USERR5
 40
0.0
  9
$WORLDVIEW
 70
     1
  9
$SHADEDGE
 70
     3
  9
$SHADEDIF
 70
    70
  9
$TILEMODE
 70
     1
  9
$MAXACTVP
 70
    16
  9
$PINSBASE
 10
0.0
 20
0.0
 30
0.0
  9
$PLIMCHECK
 70
     0
  9
$PEXTMIN
 10
0.0
 20
0.0
 30
0.0
  9
$PEXTMAX
 10
420.0
 20
297.0
 30
0.0
  9
$PLIMMIN
 10
0.0
 20
0.0
  9
$PLIMMAX
 10
420.0
 20
297.0
  9
$UNITMODE
 70
     0
  9
$VISRETAIN
 70
     0
  9
$PLINEGEN
 70
     1
  9
$PSLTSCALE
 70
     0
  9
$TREEDEPTH
 70
  3020
  9
$CMLSTYLE
  2
Standard
  9
$CMLJUST
 70
     0
  9
$CMLSCALE
 40
1.0
  9
$PROXYGRAPHICS
 70
     0
  9
$MEASUREMENT
 70
     0
  9
$CELWEIGHT
370
     0
  9
$ENDCAPS
280
     0
  9
$JOINSTYLE
280
     0
  9
$LWDISPLAY
290
     0
  9
$INSUNITS
 70
     0
  9
$HYPERLINKBASE
  1

  9
$XEDIT
290
     1
  9
$CEPSNTYPE
380
     0
  9
$PSTYLEMODE
290
     0
  9
$FINGERPRINTGUID
  2

  9
$VERSIONGUID
  2

  9
$EXTNAMES
290
     1
  9
$PSVPSCALE
 40
0.0
  0
ENDSEC
  0
SECTION
  2
CLASSES
  0
CLASS
  1
LWPOLYLINE
  2
AcDbPolyline
  3
"AutoCAD"
 90
        0
280
     0
281
     1
  0
CLASS
  1
IMAGE
  2
AcDbRasterImage
  3
ISM
 90
      127
280
     0
281
     1
  0
CLASS
  1
OLE2FRAME
  2
AcDbOle2Frame
  3
""
 90
        0
280
     0
281
     1
  0
CLASS
  1
HATCH
  2
AcDbHatch
  3
"ACAD_SEDONA"
 90
        0
280
     0
281
     1
  0
CLASS
  1
DICTIONARYVAR
  2
AcDbDictionaryVar
  3
"AutoCAD"
 90
        0
280
     0
281
     0
  0
CLASS
  1
RASTERVARIABLES
  2
AcDbRasterVariables
  3
ISM
 90
        0
280
     0
281
     0
  0
CLASS
  1
IMAGEDEF
  2
AcDbRasterImageDef
  3
ISM
 90
        0
280
     0
281
     0
  0
CLASS
  1
IMAGEDEF_REACTOR
  2
AcDbRasterImageDefReactor
  3
ISM
 90
        1
280
     0
281
     0
  0
CLASS
  1
IDBUFFER
  2
AcDbIdBuffer
  3
"Acad"
 90
        0
280
     0
281
     0
  0
CLASS
  1
SPATIAL_FILTER
  2
AcDbSpatialFilter
  3
"Acad"
 90
        0
280
     0
281
     0
  0
CLASS
  1
XRECORD
  2
AcDbXrecord
  3
"<Built In>"
 90
        0
280
     0
281
     0
  0
CLASS
  1
SORTENTSTABLE
  2
AcDbSortentsTable
  3
"AutoCAD"
 90
        0
280
     0
281
     0
  0
CLASS
  1
LAYER_INDEX
  2
AcDbLayerIndex
  3
"Acad"
 90
        0
280
     0
281
     0
  0
CLASS
  1
SPATIAL_INDEX
  2
AcDbSpatialIndex
  3
"Acad"
 90
        0
280
     0
281
     0
  0
CLASS
  1
OBJECT_PTR
  2
CAseDLPNTableRecord
  3
"ASE-LPNTableRecord"
 90
        1
280
     0
281
     0
  0
CLASS
  1
LAYOUT
  2
AcDbLayout
  3
"AutoCAD 2000"
 90
        1
280
     0
281
     0
  0
CLASS
  1
PLOTSETTINGS
  2
AcDbPlotSettings
  3
"AutoCAD 2000"
 90
        1
280
     0
281
     0
  0
CLASS
  1
ACDBDICTIONARYWDFLT
  2
AcDbDictionaryWithDefault
  3
"AutoCAD 2000"
 90
        1
280
     0
281
     0
  0
CLASS
  1
ACDBPLACEHOLDER
  2
AcDbPlaceHolder
  3
"AutoCAD 2000"
 90
        1
280
     0
281
     0
  0
CLASS
  1
VBA_PROJECT
  2
AcDbVbaProject
  3
"acadvba"
 90
        1
280
     0
281
     0
  0
CLASS
  1
WIPEOUT
  2
AcDbWipeout
  3
WipeOut|AutoCAD Express Tool|expresstools@autodesk.com
 90
      127
280
     0
281
     1
  0
CLASS
  1
WIPEOUTVARIABLES
  2
AcDbWipeoutVariables
  3
WipeOut|AutoCAD Express Tool|expresstools@autodesk.com
 90
        0
280
     0
281
     0
  0
CLASS
  1
RTEXT
  2
RText
  3
RText|AutoCAD Express Tool|expresstools@autodesk.com
 90
        0
280
     0
281
     1
  0
CLASS
  1
ARCALIGNEDTEXT
  2
AcDbArcAlignedText
  3
ATEXT|AutoCAD Express Tool|expresstools@autodesk.com
 90
        0
280
     0
281
     1
  0
ENDSEC
  0
SECTION
  2
TABLES
  0
TABLE
  2
VPORT
  5
7
100
AcDbSymbolTable
 70
     1
  0
VPORT
  5
15
100
AcDbSymbolTableRecord
100
AcDbViewportTableRecord
  2
*ACTIVE
 70
     0
 10
0.0
 20
0.0
 11
1.0
 21
1.0
 12
6.591288
 22
4.579184
 13
0.0
 23
0.0
 14
1.0
 24
1.0
 15
0.0
 25
0.0
 16
0.0
 26
0.0
 36
1.0
 17
0.0
 27
0.0
 37
0.0
 40
9.158369
 41
0.688564
 42
50.0
 43
0.0
 44
0.0
 50
0.0
 51
0.0
 71
     0
 72
   100
 73
     1
 74
     1
 75
     0
 76
     0
 77
     0
 78
     0
281
     0
 65
     0
110
0.0
120
0.0
130
0.0
111
1.0
121
0.0
131
0.0
112
0.0
122
1.0
132
0.0
345
0
346
0
 79
     0
146
0.0
  0
ENDTAB
  0
TABLE
  2
LTYPE
  5
4
100
AcDbSymbolTable
 70
     9
  0
LTYPE
  5
11
100
AcDbSymbolTableRecord
100
AcDbLinetypeTableRecord
  2
ByBlock
 70
    64
  3

 72
    65
 73
     0
 40
0.0
  0
LTYPE
  5
12
100
AcDbSymbolTableRecord
100
AcDbLinetypeTableRecord
  2
ByLayer
 70
    64
  3

 72
    65
 73
     0
 40
0.0
  0
LTYPE
  5
13
100
AcDbSymbolTableRecord
100
AcDbLinetypeTableRecord
  2
Continuous
 70
    64
  3
Solid line
 72
    65
 73
     0
 40
0.0
  0
LTYPE
  5
24
100
AcDbSymbolTableRecord
100
AcDbLinetypeTableRecord
  2
HIDDEN
 70
    64
  3
- - - - - - - - 
 72
    65
 73
     2
 40
12.6
 49
8.4
 74
     0
 49
-4.2
 74
     0
  0
LTYPE
  5
25
100
AcDbSymbolTableRecord
100
AcDbLinetypeTableRecord
  2
DOT
 70
    64
  3
･ ･ ･ ･ ･ ･ ･ ･ 
 72
    65
 73
     2
 40
8.0
 49
6.0
 74
     0
 49
-2.0
 74
     0
  0
LTYPE
  5
26
100
AcDbSymbolTableRecord
100
AcDbLinetypeTableRecord
  2
CENTER
 70
    64
  3
- ･ - ･ - ･ - ･ 
 72
    65
 73
     4
 40
50.5
 49
30.0
 74
     0
 49
-9.0
 74
     0
 49
2.5
 74
     0
 49
-9.0
 74
     0
  0
LTYPE
  5
27
100
AcDbSymbolTableRecord
100
AcDbLinetypeTableRecord
  2
PHANTOM
 70
    64
  3
- ･･ - ･･ - ･･ - ･･ 
 72
    65
 73
     6
 40
58.0
 49
30.0
 74
     0
 49
-9.0
 74
     0
 49
2.5
 74
     0
 49
-5.0
 74
     0
 49
2.5
 74
     0
 49
-9.0
 74
     0
  0
LTYPE
  5
28
100
AcDbSymbolTableRecord
100
AcDbLinetypeTableRecord
  2
ACAD_ISO06W100
 70
    64
  3
____ ... ____ ... ____
 72
    65
 73
     8
 40
37.5
 49
24.0
 74
     0
 49
-3.0
 74
     0
 49
0.5
 74
     0
 49
-3.0
 74
     0
 49
0.5
 74
     0
 49
-3.0
 74
     0
 49
0.5
 74
     0
 49
-3.0
 74
     0
  0
LTYPE
  5
29
100
AcDbSymbolTableRecord
100
AcDbLinetypeTableRecord
  2
ACAD_ISO14W100
 70
    64
  3
__ . . . __ . . . __ . . . 
 72
    65
 73
     8
 40
25.5
 49
12.0
 74
     0
 49
-3.0
 74
     0
 49
0.5
 74
     0
 49
-3.0
 74
     0
 49
0.5
 74
     0
 49
-3.0
 74
     0
 49
0.5
 74
     0
 49
-3.0
 74
     0
  0
ENDTAB
  0
TABLE
  2
LAYER
  5
2
100
AcDbSymbolTable
 70
    24
  0
LAYER
  5
14
100
AcDbSymbolTableRecord
100
AcDbLayerTableRecord
  2
0
 70
     0
 62
     7
  6
Continuous
290
     1
370
    -3
390
1D
  0
LAYER
  5
2A
100
AcDbSymbolTableRecord
100
AcDbLayerTableRecord
  2
1
 70
     0
 62
     7
  6
Continuous
290
     1
370
    -3
390
1F
  0
LAYER
  5
2B
100
AcDbSymbolTableRecord
100
AcDbLayerTableRecord
  2
2
 70
     0
 62
   216
  6
Continuous
290
     1
370
    -3
390
1F
  0
LAYER
  5
2C
100
AcDbSymbolTableRecord
100
AcDbLayerTableRecord
  2
3
 70
     0
 62
   214
  6
Continuous
290
     1
370
    -3
390
1F
  0
LAYER
  5
2D
100
AcDbSymbolTableRecord
100
AcDbLayerTableRecord
  2
4
 70
     0
 62
    54
  6
Continuous
290
     1
370
    -3
390
1F
  0
LAYER
  5
2E
100
AcDbSymbolTableRecord
100
AcDbLayerTableRecord
  2
5
 70
     0
 62
    94
  6
Continuous
290
     1
370
    -3
390
1F
  0
LAYER
  5
2F
100
AcDbSymbolTableRecord
100
AcDbLayerTableRecord
  2
6
 70
     0
 62
    14
  6
Continuous
290
     1
370
    -3
390
1F
  0
LAYER
  5
30
100
AcDbSymbolTableRecord
100
AcDbLayerTableRecord
  2
7
 70
     0
 62
     4
  6
Continuous
290
     1
370
    -3
390
1F
  0
LAYER
  5
31
100
AcDbSymbolTableRecord
100
AcDbLayerTableRecord
  2
8
 70
     0
 62
     6
  6
Continuous
290
     1
370
    -3
390
1F
  0
LAYER
  5
32
100
AcDbSymbolTableRecord
100
AcDbLayerTableRecord
  2
9
 70
     0
 62
     2
  6
Continuous
290
     1
370
    -3
390
1F
  0
LAYER
  5
33
100
AcDbSymbolTableRecord
100
AcDbLayerTableRecord
  2
10
 70
     0
 62
     3
  6
Continuous
290
     1
370
    -3
390
1F
  0
LAYER
  5
34
100
AcDbSymbolTableRecord
100
AcDbLayerTableRecord
  2
11
 70
     0
 62
   251
  6
Continuous
290
     1
370
    -3
390
1F
  0
LAYER
  5
35
100
AcDbSymbolTableRecord
100
AcDbLayerTableRecord
  2
12
 70
     0
 62
   136
  6
Continuous
290
     1
370
    -3
390
1F
  0
LAYER
  5
36
100
AcDbSymbolTableRecord
100
AcDbLayerTableRecord
  2
13
 70
     0
 62
   216
  6
Continuous
290
     1
370
    -3
390
1F
  0
LAYER
  5
37
100
AcDbSymbolTableRecord
100
AcDbLayerTableRecord
  2
14
 70
     0
 62
    56
  6
Continuous
290
     1
370
    -3
390
1F
  0
LAYER
  5
38
100
AcDbSymbolTableRecord
100
AcDbLayerTableRecord
  2
15
 70
     0
 62
    96
  6
Continuous
290
     1
370
    -3
390
1F
  0
LAYER
  5
39
100
AcDbSymbolTableRecord
100
AcDbLayerTableRecord
  2
16
 70
     0
 62
    16
  6
Continuous
290
     1
370
    -3
390
1F
  0
LAYER
  5
3A
100
AcDbSymbolTableRecord
100
AcDbLayerTableRecord
  2
17
 70
     0
 62
   132
  6
Continuous
290
     1
370
    -3
390
1F
  0
LAYER
  5
3B
100
AcDbSymbolTableRecord
100
AcDbLayerTableRecord
  2
18
 70
     0
 62
   212
  6
Continuous
290
     1
370
    -3
390
1F
  0
LAYER
  5
3C
100
AcDbSymbolTableRecord
100
AcDbLayerTableRecord
  2
19
 70
     0
 62
    52
  6
Continuous
290
     1
370
    -3
390
1F
  0
LAYER
  5
3D
100
AcDbSymbolTableRecord
100
AcDbLayerTableRecord
  2
20
 70
     0
 62
   250
  6
Continuous
290
     1
370
    -3
390
1F
  0
LAYER
  5
3E
100
AcDbSymbolTableRecord
100
AcDbLayerTableRecord
  2
113
 70
     0
 62
     7
  6
Continuous
290
     1
370
    -3
390
1F
  0
LAYER
  5
3F
100
AcDbSymbolTableRecord
100
AcDbLayerTableRecord
  2
128
 70
     0
 62
     7
  6
Continuous
290
     1
370
    -3
390
1F
  0
LAYER
  5
40
100
AcDbSymbolTableRecord
100
AcDbLayerTableRecord
  2
129
 70
     0
 62
     7
  6
Continuous
290
     1
370
    -3
390
1F
  0
ENDTAB
  0
TABLE
  2
STYLE
  5
3
100
AcDbSymbolTable
 70
     1
  0
STYLE
  5
17
100
AcDbSymbolTableRecord
100
AcDbTextStyleTableRecord
  2
Standard
 70
     0
 40
0.0
 41
1.0
 50
0.0
 71
     0
 42
0.0
  3
txt
  4
bigfont
  0
ENDTAB
  0
TABLE
  2
VIEW
  5
5
100
AcDbSymbolTable
 70
     0
  0
ENDTAB
  0
TABLE
  2
UCS
  5
6
100
AcDbSymbolTable
 70
     0
  0
ENDTAB
  0
TABLE
  2
APPID
  5
8
100
AcDbSymbolTable
 70
     1
  0
APPID
  5
16
100
AcDbSymbolTableRecord
100
AcDbRegAppTableRecord
  2
ACAD
 70
     0
  0
ENDTAB
  0
TABLE
  2
DIMSTYLE
  5
9
100
AcDbSymbolTable
 70
     1
100
AcDbDimStyleTable
 71
     0
  0
DIMSTYLE
105
18
100
AcDbSymbolTableRecord
100
AcDbDimStyleTableRecord
  2
Standard
 70
     0
  3

  4

 40
1.0
 41
0.18
 42
0.0625
 43
0.38
 44
0.18
 45
0.0
 46
0.0
 47
0.0
 48
0.0
 71
     0
 72
     0
 73
     1
 74
     1
 75
     0
 76
     0
 77
     0
 78
     0
 79
     0
140
0.18
141
0.09
142
0.0
143
25.4
144
1.0
145
0.0
146
1.0
147
0.09
148
0.0
170
     0
171
     2
172
     0
173
     0
174
     0
175
     0
176
     0
177
     0
178
     0
179
     0
271
     4
272
     4
273
     2
274
     2
275
     0
276
     0
277
     2
278
    46
279
     0
280
     0
281
     0
282
     0
283
     1
284
     0
285
     0
286
     0
288
     0
340
17
341
0
342
0
343
0
344
0
371
    -2
372
    -2
  0
ENDTAB
  0
TABLE
  2
BLOCK_RECORD
  5
1
100
AcDbSymbolTable
 70
    40
  0
BLOCK_RECORD
  5
A
100
AcDbSymbolTableRecord
100
AcDbBlockTableRecord
  2
*MODEL_SPACE
340
20
  0
BLOCK_RECORD
  5
B
100
AcDbSymbolTableRecord
100
AcDbBlockTableRecord
  2
*PAPER_SPACE
340
21
  0
BLOCK_RECORD
  5
59
100
AcDbSymbolTableRecord
100
AcDbBlockTableRecord
  2
*G0
340
0
  0
BLOCK_RECORD
  5
6D
100
AcDbSymbolTableRecord
100
AcDbBlockTableRecord
  2
*G1
340
0
  0
BLOCK_RECORD
  5
7B
100
AcDbSymbolTableRecord
100
AcDbBlockTableRecord
  2
*G2
340
0
  0
BLOCK_RECORD
  5
95
100
AcDbSymbolTableRecord
100
AcDbBlockTableRecord
  2
*G3
340
0
  0
BLOCK_RECORD
  5
C4
100
AcDbSymbolTableRecord
100
AcDbBlockTableRecord
  2
*G4
340
0
  0
BLOCK_RECORD
  5
CA
100
AcDbSymbolTableRecord
100
AcDbBlockTableRecord
  2
*D5
340
0
  0
BLOCK_RECORD
  5
D6
100
AcDbSymbolTableRecord
100
AcDbBlockTableRecord
  2
*G6
340
0
  0
BLOCK_RECORD
  5
10E
100
AcDbSymbolTableRecord
100
AcDbBlockTableRecord
  2
*G7
340
0
  0
BLOCK_RECORD
  5
114
100
AcDbSymbolTableRecord
100
AcDbBlockTableRecord
  2
*D8
340
0
  0
BLOCK_RECORD
  5
120
100
AcDbSymbolTableRecord
100
AcDbBlockTableRecord
  2
*D9
340
0
  0
BLOCK_RECORD
  5
152
100
AcDbSymbolTableRecord
100
AcDbBlockTableRecord
  2
*G10
340
0
  0
BLOCK_RECORD
  5
15C
100
AcDbSymbolTableRecord
100
AcDbBlockTableRecord
  2
*G11
340
0
  0
BLOCK_RECORD
  5
162
100
AcDbSymbolTableRecord
100
AcDbBlockTableRecord
  2
*G12
340
0
  0
BLOCK_RECORD
  5
168
100
AcDbSymbolTableRecord
100
AcDbBlockTableRecord
  2
*D13
340
0
  0
BLOCK_RECORD
  5
19A
100
AcDbSymbolTableRecord
100
AcDbBlockTableRecord
  2
*G14
340
0
  0
BLOCK_RECORD
  5
1C5
100
AcDbSymbolTableRecord
100
AcDbBlockTableRecord
  2
*G15
340
0
  0
BLOCK_RECORD
  5
1DE
100
AcDbSymbolTableRecord
100
AcDbBlockTableRecord
  2
*G16
340
0
  0
BLOCK_RECORD
  5
218
100
AcDbSymbolTableRecord
100
AcDbBlockTableRecord
  2
*D17
340
0
  0
BLOCK_RECORD
  5
223
100
AcDbSymbolTableRecord
100
AcDbBlockTableRecord
  2
*D18
340
0
  0
BLOCK_RECORD
  5
230
100
AcDbSymbolTableRecord
100
AcDbBlockTableRecord
  2
*D19
340
0
  0
BLOCK_RECORD
  5
23E
100
AcDbSymbolTableRecord
100
AcDbBlockTableRecord
  2
*G20
340
0
  0
BLOCK_RECORD
  5
29E
100
AcDbSymbolTableRecord
100
AcDbBlockTableRecord
  2
*D21
340
0
  0
BLOCK_RECORD
  5
2AA
100
AcDbSymbolTableRecord
100
AcDbBlockTableRecord
  2
*D22
340
0
  0
BLOCK_RECORD
  5
2D0
100
AcDbSymbolTableRecord
100
AcDbBlockTableRecord
  2
*G23
340
0
  0
BLOCK_RECORD
  5
348
100
AcDbSymbolTableRecord
100
AcDbBlockTableRecord
  2
*D24
340
0
  0
BLOCK_RECORD
  5
355
100
AcDbSymbolTableRecord
100
AcDbBlockTableRecord
  2
*D25
340
0
  0
BLOCK_RECORD
  5
365
100
AcDbSymbolTableRecord
100
AcDbBlockTableRecord
  2
*G26
340
0
  0
BLOCK_RECORD
  5
372
100
AcDbSymbolTableRecord
100
AcDbBlockTableRecord
  2
*G27
340
0
  0
BLOCK_RECORD
  5
381
100
AcDbSymbolTableRecord
100
AcDbBlockTableRecord
  2
*D28
340
0
  0
BLOCK_RECORD
  5
38D
100
AcDbSymbolTableRecord
100
AcDbBlockTableRecord
  2
*D29
340
0
  0
BLOCK_RECORD
  5
399
100
AcDbSymbolTableRecord
100
AcDbBlockTableRecord
  2
*D30
340
0
  0
BLOCK_RECORD
  5
3B1
100
AcDbSymbolTableRecord
100
AcDbBlockTableRecord
  2
*G31
340
0
  0
BLOCK_RECORD
  5
3BD
100
AcDbSymbolTableRecord
100
AcDbBlockTableRecord
  2
*G32
340
0
  0
BLOCK_RECORD
  5
3C6
100
AcDbSymbolTableRecord
100
AcDbBlockTableRecord
  2
*D33
340
0
  0
BLOCK_RECORD
  5
3D2
100
AcDbSymbolTableRecord
100
AcDbBlockTableRecord
  2
*G34
340
0
  0
BLOCK_RECORD
  5
3D4
100
AcDbSymbolTableRecord
100
AcDbBlockTableRecord
  2
*G35
340
0
  0
BLOCK_RECORD
  5
3DC
100
AcDbSymbolTableRecord
100
AcDbBlockTableRecord
  2
*G36
340
0
  0
BLOCK_RECORD
  5
3FA
100
AcDbSymbolTableRecord
100
AcDbBlockTableRecord
  2
*G37
340
0
  0
BLOCK_RECORD
  5
409
100
AcDbSymbolTableRecord
100
AcDbBlockTableRecord
  2
*G38
340
0
  0
BLOCK_RECORD
  5
40B
100
AcDbSymbolTableRecord
100
AcDbBlockTableRecord
  2
*G39
340
0
  0
ENDTAB
  0
ENDSEC
  0
SECTION
  2
BLOCKS
  0
BLOCK
  5
D
100
AcDbEntity
  8
0
100
AcDbBlockBegin
  2
*MODEL_SPACE
 70
     0
 10
0.0
 20
0.0
 30
0.0
  3
*MODEL_SPACE
  1

  0
ENDBLK
  5
E
100
AcDbEntity
  8
0
100
AcDbBlockEnd
  0
BLOCK
  5
F
100
AcDbEntity
 67
     1
  8
0
100
AcDbBlockBegin
  2
*PAPER_SPACE
 70
     0
 10
0.0
 20
0.0
 30
0.0
  3
*PAPER_SPACE
  1

  0
ENDBLK
  5
10
100
AcDbEntity
 67
     1
  8
0
100
AcDbBlockEnd
  0
BLOCK
  5
5A
100
AcDbEntity
  8
3
  6
Continuous
 62
   214
100
AcDbBlockBegin
  2
*G0
 70
     0
 10
0.0
 20
0.0
 30
0.0
  3
*G0
  1

  0
ARC
  5
5B
100
AcDbEntity
  8
3
  6
Continuous
 62
   214
100
AcDbCircle
 10
1759.409116
 20
4079.163784
 30
0.0
 40
625.0
100
AcDbArc
 50
60.999841
 51
82.999724
  0
ARC
  5
5C
100
AcDbEntity
  8
3
  6
Continuous
 62
   214
100
AcDbCircle
 10
1759.409116
 20
4079.163784
 30
0.0
 40
625.0
100
AcDbArc
 50
108.999999
 51
131.0
  0
LINE
  5
5D
100
AcDbEntity
  8
3
  6
Continuous
 62
   214
100
AcDbLine
 10
1349.372227
 20
4550.857275
 30
0.0
 11
1344.548501
 21
4539.913242
 31
0.0
  0
LINE
  5
5E
100
AcDbEntity
  8
3
  6
Continuous
 62
   214
100
AcDbLine
 10
1555.929029
 20
4670.112897
 30
0.0
 11
1567.821843
 21
4668.821131
 31
0.0
  0
LINE
  5
5F
100
AcDbEntity
  8
3
  6
Continuous
 62
   214
100
AcDbLine
 10
1824.22009
 20
4695.76968
 30
0.0
 11
1835.580449
 21
4699.504761
 31
0.0
  0
LINE
  5
60
100
AcDbEntity
  8
3
  6
Continuous
 62
   214
100
AcDbLine
 10
2062.416644
 20
4625.800261
 30
0.0
 11
2069.412397
 21
4616.101874
 31
0.0
  0
LINE
  5
61
100
AcDbEntity
  8
3
  6
Continuous
 62
   214
100
AcDbLine
 10
2261.002924
 20
4443.593017
 30
0.0
 11
2271.379144
 21
4437.649057
 31
0.0
  0
LINE
  5
62
100
AcDbEntity
  8
3
  6
Continuous
 62
   214
100
AcDbLine
 10
2365.86394
 20
4208.071355
 30
0.0
 11
2368.390064
 21
4219.759675
 31
0.0
  0
LINE
  5
63
100
AcDbEntity
  8
3
  6
Continuous
 62
   214
100
AcDbLine
 10
2365.863941
 20
3950.26086
 30
0.0
 11
2368.391083
 21
3938.572307
 31
0.0
  0
LINE
  5
64
100
AcDbEntity
  8
3
  6
Continuous
 62
   214
100
AcDbLine
 10
2271.381333
 20
3720.681638
 30
0.0
 11
2261.002968
 21
3714.739256
 31
0.0
  0
LINE
  5
65
100
AcDbEntity
  8
3
  6
Continuous
 62
   214
100
AcDbLine
 10
2069.412282
 20
3542.230272
 30
0.0
 11
2062.41849
 21
3532.52833
 31
0.0
  0
LINE
  5
66
100
AcDbEntity
  8
3
  6
Continuous
 62
   214
100
AcDbLine
 10
1846.395829
 20
3460.246736
 30
0.0
 11
1834.971458
 21
3463.787497
 31
0.0
  0
LINE
  5
67
100
AcDbEntity
  8
3
  6
Continuous
 62
   214
100
AcDbLine
 10
1578.143793
 20
3486.2566
 30
0.0
 11
1566.275844
 21
3484.752698
 31
0.0
  0
ARC
  5
68
100
AcDbEntity
  8
3
  6
Continuous
 62
   214
100
AcDbCircle
 10
1759.409116
 20
4079.163784
 30
0.0
 40
625.0
100
AcDbArc
 50
-81.999674
 51
-60.999653
  0
ARC
  5
69
100
AcDbEntity
  8
3
  6
Continuous
 62
   214
100
AcDbCircle
 10
1759.409116
 20
4079.163784
 30
0.0
 40
625.0
100
AcDbArc
 50
-34.99965
 51
-12.999724
  0
ARC
  5
6A
100
AcDbEntity
  8
3
  6
Continuous
 62
   214
100
AcDbCircle
 10
1759.409116
 20
4079.163784
 30
0.0
 40
625.0
100
AcDbArc
 50
13.000139
 51
35.0
  0
ARC
  5
6B
100
AcDbEntity
  8
3
  6
Continuous
 62
   214
100
AcDbCircle
 10
1759.409116
 20
4079.163784
 30
0.0
 40
625.0
100
AcDbArc
 50
-167.591971
 51
-145.944459
  0
ARC
  5
6C
100
AcDbEntity
  8
3
  6
Continuous
 62
   214
100
AcDbCircle
 10
1759.409116
 20
4079.163784
 30
0.0
 40
625.0
100
AcDbArc
 50
-129.992793
 51
-107.999773
  0
INSERT
  5
7A
100
AcDbEntity
  8
3
  6
Continuous
 62
   214
100
AcDbBlockReference
  2
*G1
 10
0.0
 20
0.0
 30
0.0
  0
INSERT
  5
88
100
AcDbEntity
  8
3
  6
Continuous
 62
   214
100
AcDbBlockReference
  2
*G2
 10
0.0
 20
0.0
 30
0.0
  0
LINE
  5
89
100
AcDbEntity
  8
3
  6
Continuous
 62
   214
100
AcDbLine
 10
1464.704548
 20
3771.166106
 30
0.0
 11
1464.704548
 21
3729.166106
 31
0.0
  0
LINE
  5
8A
100
AcDbEntity
  8
3
  6
Continuous
 62
   214
100
AcDbLine
 10
1422.704548
 20
3729.166106
 30
0.0
 11
1422.704548
 21
3679.166106
 31
0.0
  0
LINE
  5
8B
100
AcDbEntity
  8
3
  6
Continuous
 62
   214
100
AcDbLine
 10
1422.704548
 20
3679.166106
 30
0.0
 11
1542.704548
 21
3679.166106
 31
0.0
  0
LINE
  5
8C
100
AcDbEntity
  8
3
  6
Continuous
 62
   214
100
AcDbLine
 10
1241.604548
 20
3729.166106
 30
0.0
 11
1422.704548
 21
3729.166106
 31
0.0
  0
LINE
  5
8D
100
AcDbEntity
  8
3
  6
Continuous
 62
   214
100
AcDbLine
 10
1464.704548
 20
3729.166106
 30
0.0
 11
1584.704548
 21
3729.166106
 31
0.0
  0
ARC
  5
8E
100
AcDbEntity
  8
3
  6
Continuous
 62
   214
100
AcDbCircle
 10
1245.700446
 20
4389.166106
 30
0.0
 40
20.0
100
AcDbArc
 50
148.891077
 51
-90.0
  0
LINE
  5
8F
100
AcDbEntity
  8
3
  6
Continuous
 62
   214
100
AcDbLine
 10
1513.700446
 20
4079.166102
 30
0.0
 11
1513.700446
 21
4079.166106
 31
0.0
  0
LINE
  5
90
100
AcDbEntity
  8
3
  6
Continuous
 62
   214
100
AcDbLine
 10
1453.700453
 20
4294.166106
 30
0.0
 11
1413.700446
 21
4246.495954
 31
0.0
  0
LINE
  5
91
100
AcDbEntity
  8
3
  6
Continuous
 62
   214
100
AcDbLine
 10
1453.700446
 20
4294.166097
 30
0.0
 11
1453.700464
 21
4044.166106
 31
0.0
  0
LINE
  5
92
100
AcDbEntity
  8
3
  6
Continuous
 62
   214
100
AcDbLine
 10
1413.700446
 20
4091.836272
 30
0.0
 11
1453.700446
 21
4044.166106
 31
0.0
  0
LINE
  5
93
100
AcDbEntity
  8
3
  6
Continuous
 62
   214
100
AcDbLine
 10
1542.704548
 20
3679.166106
 30
0.0
 11
1542.704548
 21
3609.166106
 31
0.0
  0
LINE
  5
94
100
AcDbEntity
  8
3
  6
Continuous
 62
   214
100
AcDbLine
 10
1584.704548
 20
3729.166106
 30
0.0
 11
1584.704548
 21
3567.166106
 31
0.0
  0
INSERT
  5
A2
100
AcDbEntity
  8
3
  6
Continuous
 62
   214
100
AcDbBlockReference
  2
*G3
 10
0.0
 20
0.0
 30
0.0
  0
ARC
  5
A3
100
AcDbEntity
  8
3
  6
Continuous
 62
   214
100
AcDbCircle
 10
1759.412428
 20
4079.166106
 30
0.0
 40
620.0
100
AcDbArc
 50
36.000006
 51
60.000003
  0
ARC
  5
A4
100
AcDbEntity
  8
3
  6
Continuous
 62
   214
100
AcDbCircle
 10
1759.412428
 20
4079.166106
 30
0.0
 40
620.0
100
AcDbArc
 50
83.999999
 51
108.000005
  0
ARC
  5
A5
100
AcDbEntity
  8
3
  6
Continuous
 62
   214
100
AcDbCircle
 10
1759.412428
 20
4079.166106
 30
0.0
 40
620.0
100
AcDbArc
 50
132.000367
 51
148.891077
  0
ARC
  5
A6
100
AcDbEntity
  8
3
  6
Continuous
 62
   214
100
AcDbCircle
 10
1759.412428
 20
4079.166106
 30
0.0
 40
620.0
100
AcDbArc
 50
-60.000015
 51
-35.999999
  0
ARC
  5
A7
100
AcDbEntity
  8
3
  6
Continuous
 62
   214
100
AcDbCircle
 10
1759.412428
 20
4079.166106
 30
0.0
 40
620.0
100
AcDbArc
 50
-12.0
 51
12.0
  0
ARC
  5
A8
100
AcDbEntity
  8
3
  6
Continuous
 62
   214
100
AcDbCircle
 10
1759.412428
 20
4079.166106
 30
0.0
 40
620.0
100
AcDbArc
 50
-106.999824
 51
-82.999997
  0
ARC
  5
A9
100
AcDbEntity
  8
3
  6
Continuous
 62
   214
100
AcDbCircle
 10
1228.582888
 20
3907.166106
 30
0.0
 40
20.0
100
AcDbArc
 50
90.0
 51
-162.046579
  0
ARC
  5
AA
100
AcDbEntity
  8
3
  6
Continuous
 62
   214
100
AcDbCircle
 10
1168.5406
 20
3949.166106
 30
0.0
 40
20.0
100
AcDbArc
 50
90.0
 51
-167.591971
  0
ARC
  5
AB
100
AcDbEntity
  8
3
  6
Continuous
 62
   214
100
AcDbCircle
 10
1759.412428
 20
4079.166106
 30
0.0
 40
578.0
100
AcDbArc
 50
-162.046579
 51
-148.927049
  0
LINE
  5
AC
100
AcDbEntity
  8
3
  6
Continuous
 62
   214
100
AcDbLine
 10
1281.479378
 20
3771.166106
 30
0.0
 11
1464.704548
 21
3771.166106
 31
0.0
  0
ARC
  5
AD
100
AcDbEntity
  8
3
  6
Continuous
 62
   214
100
AcDbCircle
 10
1281.479378
 20
3791.166106
 30
0.0
 40
20.0
100
AcDbArc
 50
-148.927049
 51
-90.0
  0
LINE
  5
AE
100
AcDbEntity
  8
3
  6
Continuous
 62
   214
100
AcDbLine
 10
1360.94054
 20
3609.166106
 30
0.0
 11
1542.704548
 21
3609.166106
 31
0.0
  0
ARC
  5
AF
100
AcDbEntity
  8
3
  6
Continuous
 62
   214
100
AcDbCircle
 10
1360.94054
 20
3604.166106
 30
0.0
 40
5.0
100
AcDbArc
 50
90.0
 51
-129.992793
  0
LINE
  5
B0
100
AcDbEntity
  8
3
  6
Continuous
 62
   214
100
AcDbLine
 10
1561.321539
 20
3567.166106
 30
0.0
 11
1584.704548
 21
3567.166106
 31
0.0
  0
ARC
  5
B1
100
AcDbEntity
  8
3
  6
Continuous
 62
   214
100
AcDbCircle
 10
1561.321539
 20
3552.166106
 30
0.0
 40
15.0
100
AcDbArc
 50
90.0
 51
-110.600439
  0
ARC
  5
B2
100
AcDbEntity
  8
3
  6
Continuous
 62
   214
100
AcDbCircle
 10
1463.700446
 20
4361.166106
 30
0.0
 40
50.0
100
AcDbArc
 50
0.0
 51
90.0
  0
LINE
  5
B3
100
AcDbEntity
  8
3
  6
Continuous
 62
   214
100
AcDbLine
 10
1228.582888
 20
3927.166106
 30
0.0
 11
1463.700446
 21
3927.166106
 31
0.0
  0
ARC
  5
B4
100
AcDbEntity
  8
3
  6
Continuous
 62
   214
100
AcDbCircle
 10
1463.700446
 20
3977.166106
 30
0.0
 40
50.0
100
AcDbArc
 50
-90.0
 51
0.0
  0
ARC
  5
B5
100
AcDbEntity
  8
3
  6
Continuous
 62
   214
100
AcDbCircle
 10
1759.412428
 20
4079.166106
 30
0.0
 40
578.0
100
AcDbArc
 50
-110.600439
 51
-64.809557
  0
ARC
  5
B6
100
AcDbEntity
  8
3
  6
Continuous
 62
   214
100
AcDbCircle
 10
1759.412428
 20
4079.166106
 30
0.0
 40
578.0
100
AcDbArc
 50
-55.190423
 51
55.190421
  0
LINE
  5
B7
100
AcDbEntity
  8
3
  6
Continuous
 62
   214
100
AcDbLine
 10
1513.700446
 20
4126.494745
 30
0.0
 11
1513.700446
 21
4361.166106
 31
0.0
  0
LINE
  5
B8
100
AcDbEntity
  8
3
  6
Continuous
 62
   214
100
AcDbLine
 10
1513.700446
 20
3977.166106
 30
0.0
 11
1513.700446
 21
4031.837468
 31
0.0
  0
LINE
  5
B9
100
AcDbEntity
  8
3
  6
Continuous
 62
   214
100
AcDbLine
 10
1463.700446
 20
4411.166106
 30
0.0
 11
1326.445916
 21
4411.166106
 31
0.0
  0
ARC
  5
BA
100
AcDbEntity
  8
3
  6
Continuous
 62
   214
100
AcDbCircle
 10
1759.412428
 20
4079.166106
 30
0.0
 40
578.0
100
AcDbArc
 50
64.809555
 51
140.889031
  0
ARC
  5
BB
100
AcDbEntity
  8
3
  6
Continuous
 62
   214
100
AcDbCircle
 10
1326.445916
 20
4431.166106
 30
0.0
 40
20.0
100
AcDbArc
 50
140.889031
 51
-90.0
  0
LINE
  5
BC
100
AcDbEntity
  8
3
  6
Continuous
 62
   214
100
AcDbLine
 10
1245.700446
 20
4369.166106
 30
0.0
 11
1408.700446
 21
4369.166106
 31
0.0
  0
LINE
  5
BD
100
AcDbEntity
  8
3
  6
Continuous
 62
   214
100
AcDbLine
 10
1413.700446
 20
4364.166106
 30
0.0
 11
1413.700446
 21
4246.495954
 31
0.0
  0
ARC
  5
BE
100
AcDbEntity
  8
3
  6
Continuous
 62
   214
100
AcDbCircle
 10
1408.700446
 20
4364.166106
 30
0.0
 40
5.0
100
AcDbArc
 50
0.0
 51
90.0
  0
LINE
  5
BF
100
AcDbEntity
  8
3
  6
Continuous
 62
   214
100
AcDbLine
 10
1168.5406
 20
3969.166106
 30
0.0
 11
1408.700446
 21
3969.166106
 31
0.0
  0
LINE
  5
C0
100
AcDbEntity
  8
3
  6
Continuous
 62
   214
100
AcDbLine
 10
1413.700446
 20
4091.836272
 30
0.0
 11
1413.700446
 21
3974.166106
 31
0.0
  0
ARC
  5
C1
100
AcDbEntity
  8
3
  6
Continuous
 62
   214
100
AcDbCircle
 10
1408.700446
 20
3974.166106
 30
0.0
 40
5.0
100
AcDbArc
 50
-90.0
 51
0.0
  0
ENDBLK
  5
C2
100
AcDbEntity
  8
0
100
AcDbBlockEnd
  0
BLOCK
  5
6E
100
AcDbEntity
  8
3
  6
Continuous
 62
   214
100
AcDbBlockBegin
  2
*G1
 70
     0
 10
0.0
 20
0.0
 30
0.0
  3
*G1
  1

  0
LINE
  5
6F
100
AcDbEntity
  8
3
  6
CENTER
 62
   214
100
AcDbLine
 10
2061.753492
 20
3555.496208
 30
0.0
 11
2017.541387
 21
3632.073821
 31
0.0
  0
ARC
  5
70
100
AcDbEntity
  8
3
  6
Continuous
 62
   214
100
AcDbCircle
 10
2001.169332
 20
3565.184006
 30
0.0
 40
10.0
100
AcDbArc
 50
-64.809557
 51
37.180765
  0
ARC
  5
71
100
AcDbEntity
  8
3
  6
Continuous
 62
   214
100
AcDbCircle
 10
2083.655687
 20
3612.807544
 30
0.0
 40
10.0
100
AcDbArc
 50
-157.180746
 51
-55.190423
  0
ARC
  5
72
100
AcDbEntity
  8
3
  6
Continuous
 62
   214
100
AcDbCircle
 10
2039.412509
 20
3594.191927
 30
0.0
 40
38.0
100
AcDbArc
 50
22.819254
 51
69.075163
  0
ARC
  5
73
100
AcDbEntity
  8
3
  6
Continuous
 62
   214
100
AcDbCircle
 10
2049.412511
 20
3620.34532
 30
0.0
 40
10.0
100
AcDbArc
 50
69.075163
 51
-180.0
  0
ARC
  5
74
100
AcDbEntity
  8
3
  6
Continuous
 62
   214
100
AcDbCircle
 10
2049.412511
 20
3620.34532
 30
0.0
 40
10.0
100
AcDbArc
 50
180.0
 51
-110.924837
  0
ARC
  5
75
100
AcDbEntity
  8
3
  6
Continuous
 62
   214
100
AcDbCircle
 10
2039.412509
 20
3594.191927
 30
0.0
 40
18.0
100
AcDbArc
 50
170.92481
 51
69.075163
  0
ARC
  5
76
100
AcDbEntity
  8
3
  6
Continuous
 62
   214
100
AcDbCircle
 10
2011.763007
 20
3598.60838
 30
0.0
 40
10.0
100
AcDbArc
 50
-9.07519
 51
60.0
  0
ARC
  5
77
100
AcDbEntity
  8
3
  6
Continuous
 62
   214
100
AcDbCircle
 10
2039.412509
 20
3594.191927
 30
0.0
 40
38.0
100
AcDbArc
 50
170.92481
 51
-142.819235
  0
ARC
  5
78
100
AcDbEntity
  8
3
  6
Continuous
 62
   214
100
AcDbCircle
 10
2011.763007
 20
3598.60838
 30
0.0
 40
10.0
100
AcDbArc
 50
60.0
 51
170.92481
  0
ENDBLK
  5
79
100
AcDbEntity
  8
0
100
AcDbBlockEnd
  0
BLOCK
  5
7C
100
AcDbEntity
  8
3
  6
Continuous
 62
   214
100
AcDbBlockBegin
  2
*G2
 70
     0
 10
0.0
 20
0.0
 30
0.0
  3
*G2
  1

  0
LINE
  5
7D
100
AcDbEntity
  8
3
  6
CENTER
 62
   214
100
AcDbLine
 10
2061.75351
 20
4602.835995
 30
0.0
 11
2017.541404
 21
4526.258381
 31
0.0
  0
ARC
  5
7E
100
AcDbEntity
  8
3
  6
Continuous
 62
   214
100
AcDbCircle
 10
2083.655704
 20
4545.524657
 30
0.0
 40
10.0
100
AcDbArc
 50
55.190421
 51
157.180744
  0
ARC
  5
7F
100
AcDbEntity
  8
3
  6
Continuous
 62
   214
100
AcDbCircle
 10
2001.169351
 20
4593.148198
 30
0.0
 40
10.0
100
AcDbArc
 50
-37.180767
 51
64.809555
  0
ARC
  5
80
100
AcDbEntity
  8
3
  6
Continuous
 62
   214
100
AcDbCircle
 10
2039.412526
 20
4564.140276
 30
0.0
 40
38.0
100
AcDbArc
 50
-69.07519
 51
-22.819256
  0
ARC
  5
81
100
AcDbEntity
  8
3
  6
Continuous
 62
   214
100
AcDbCircle
 10
2049.412516
 20
4537.986878
 30
0.0
 40
10.0
100
AcDbArc
 50
180.0
 51
-69.07519
  0
ARC
  5
82
100
AcDbEntity
  8
3
  6
Continuous
 62
   214
100
AcDbCircle
 10
2049.412516
 20
4537.986878
 30
0.0
 40
10.0
100
AcDbArc
 50
110.92481
 51
180.0
  0
ARC
  5
83
100
AcDbEntity
  8
3
  6
Continuous
 62
   214
100
AcDbCircle
 10
2039.412526
 20
4564.140276
 30
0.0
 40
18.0
100
AcDbArc
 50
-69.07519
 51
-170.924837
  0
ARC
  5
84
100
AcDbEntity
  8
3
  6
Continuous
 62
   214
100
AcDbCircle
 10
2011.763022
 20
4559.723835
 30
0.0
 40
10.0
100
AcDbArc
 50
-60.0
 51
9.075163
  0
ARC
  5
85
100
AcDbEntity
  8
3
  6
Continuous
 62
   214
100
AcDbCircle
 10
2039.412526
 20
4564.140276
 30
0.0
 40
38.0
100
AcDbArc
 50
142.819233
 51
-170.924837
  0
ARC
  5
86
100
AcDbEntity
  8
3
  6
Continuous
 62
   214
100
AcDbCircle
 10
2011.763022
 20
4559.723835
 30
0.0
 40
10.0
100
AcDbArc
 50
-170.924837
 51
-60.0
  0
ENDBLK
  5
87
100
AcDbEntity
  8
0
100
AcDbBlockEnd
  0
BLOCK
  5
96
100
AcDbEntity
  8
3
  6
Continuous
 62
   214
100
AcDbBlockBegin
  2
*G3
 70
     0
 10
0.0
 20
0.0
 30
0.0
  3
*G3
  1

  0
LINE
  5
97
100
AcDbEntity
  8
3
  6
CENTER
 62
   214
100
AcDbLine
 10
1531.700446
 20
4123.570918
 30
0.0
 11
1531.700446
 21
4033.205845
 31
0.0
  0
ARC
  5
98
100
AcDbEntity
  8
3
  6
Continuous
 62
   214
100
AcDbCircle
 10
1523.700446
 20
4126.494745
 30
0.0
 40
10.0
100
AcDbArc
 50
180.0
 51
-80.405932
  0
ARC
  5
99
100
AcDbEntity
  8
3
  6
Continuous
 62
   214
100
AcDbCircle
 10
1523.700446
 20
4031.837468
 30
0.0
 40
10.0
100
AcDbArc
 50
80.405932
 51
180.0
  0
ARC
  5
9A
100
AcDbEntity
  8
3
  6
Continuous
 62
   214
100
AcDbCircle
 10
1531.700446
 20
4079.166106
 30
0.0
 40
38.0
100
AcDbArc
 50
50.92481
 51
99.594068
  0
ARC
  5
9B
100
AcDbEntity
  8
3
  6
Continuous
 62
   214
100
AcDbCircle
 10
1549.349958
 20
4100.90305
 30
0.0
 40
10.0
100
AcDbArc
 50
-60.0
 51
50.92481
  0
ARC
  5
9C
100
AcDbEntity
  8
3
  6
Continuous
 62
   214
100
AcDbCircle
 10
1549.349958
 20
4100.90305
 30
0.0
 40
10.0
100
AcDbArc
 50
-129.07519
 51
-60.0
  0
ARC
  5
9D
100
AcDbEntity
  8
3
  6
Continuous
 62
   214
100
AcDbCircle
 10
1531.700446
 20
4079.166106
 30
0.0
 40
18.0
100
AcDbArc
 50
50.92481
 51
-50.924837
  0
ARC
  5
9E
100
AcDbEntity
  8
3
  6
Continuous
 62
   214
100
AcDbCircle
 10
1549.349948
 20
4057.429154
 30
0.0
 40
10.0
100
AcDbArc
 50
60.0
 51
129.075163
  0
ARC
  5
9F
100
AcDbEntity
  8
3
  6
Continuous
 62
   214
100
AcDbCircle
 10
1531.700446
 20
4079.166106
 30
0.0
 40
38.0
100
AcDbArc
 50
-99.594068
 51
-50.924837
  0
ARC
  5
A0
100
AcDbEntity
  8
3
  6
Continuous
 62
   214
100
AcDbCircle
 10
1549.349948
 20
4057.429154
 30
0.0
 40
10.0
100
AcDbArc
 50
-50.924837
 51
60.0
  0
ENDBLK
  5
A1
100
AcDbEntity
  8
0
100
AcDbBlockEnd
  0
BLOCK
  5
C5
100
AcDbEntity
  8
3
  6
Continuous
 62
   214
100
AcDbBlockBegin
  2
*G4
 70
     0
 10
0.0
 20
0.0
 30
0.0
  3
*G4
  1

  0
LINE
  5
C6
100
AcDbEntity
  8
3
  6
CENTER
 62
   214
100
AcDbLine
 10
695.54841
 20
4079.166106
 30
0.0
 11
2823.276445
 21
4079.166106
 31
0.0
  0
LINE
  5
C7
100
AcDbEntity
  8
3
  6
CENTER
 62
   214
100
AcDbLine
 10
1759.412428
 20
3015.302088
 30
0.0
 11
1759.412428
 21
5143.030124
 31
0.0
  0
ENDBLK
  5
C8
100
AcDbEntity
  8
0
100
AcDbBlockEnd
  0
BLOCK
  5
CB
100
AcDbEntity
  8
3
  6
Continuous
 62
   214
100
AcDbBlockBegin
  2
*D5
 70
     0
 10
0.0
 20
0.0
 30
0.0
  3
*D5
  1

  0
LINE
  5
CC
100
AcDbEntity
  8
3
  6
Continuous
 62
   214
100
AcDbLine
 10
1036.567835
 20
3969.166106
 30
0.0
 11
1036.567835
 21
4369.166106
 31
0.0
  0
LINE
  5
CD
100
AcDbEntity
  8
3
  6
Continuous
 62
   214
100
AcDbLine
 10
1026.567835
 20
3969.166106
 30
0.0
 11
1158.5406
 21
3969.166106
 31
0.0
  0
LINE
  5
CE
100
AcDbEntity
  8
3
  6
Continuous
 62
   214
100
AcDbLine
 10
1026.567835
 20
4369.166106
 30
0.0
 11
1235.700446
 21
4369.166106
 31
0.0
  0
LINE
  5
CF
100
AcDbEntity
  8
3
  6
Continuous
 62
   214
100
AcDbLine
 10
1036.567835
 20
3969.166106
 30
0.0
 11
1023.626882
 21
4017.462398
 31
0.0
  0
LINE
  5
D0
100
AcDbEntity
  8
3
  6
Continuous
 62
   214
100
AcDbLine
 10
1036.567835
 20
3969.166106
 30
0.0
 11
1049.508787
 21
4017.462398
 31
0.0
  0
LINE
  5
D1
100
AcDbEntity
  8
3
  6
Continuous
 62
   214
100
AcDbLine
 10
1036.567835
 20
4369.166106
 30
0.0
 11
1049.508787
 21
4320.869815
 31
0.0
  0
LINE
  5
D2
100
AcDbEntity
  8
3
  6
Continuous
 62
   214
100
AcDbLine
 10
1036.567835
 20
4369.166106
 30
0.0
 11
1023.626882
 21
4320.869815
 31
0.0
  0
TEXT
  5
D3
100
AcDbEntity
  8
3
  6
Continuous
 62
   214
100
AcDbText
 10
1036.567835
 20
4129.166106
 30
0.0
 40
80.0
  1
40
 50
90.0
 41
0.5
 11
1036.567835
 21
4129.166106
 31
0.0
100
AcDbText
 73
     1
  0
ENDBLK
  5
D4
100
AcDbEntity
  8
3
  6
Continuous
 62
   214
100
AcDbBlockEnd
  0
BLOCK
  5
D7
100
AcDbEntity
  8
3
  6
Continuous
 62
   214
100
AcDbBlockBegin
  2
*G6
 70
     0
 10
0.0
 20
0.0
 30
0.0
  3
*G6
  1

  0
LINE
  5
D8
100
AcDbEntity
  8
3
  6
Continuous
 62
   214
100
AcDbLine
 10
1261.700446
 20
4366.166106
 30
0.0
 11
1261.700446
 21
4371.166106
 31
0.0
  0
LINE
  5
D9
100
AcDbEntity
  8
3
  6
Continuous
 62
   214
100
AcDbLine
 10
1261.700446
 20
4371.166106
 30
0.0
 11
1285.700446
 21
4371.166106
 31
0.0
  0
LINE
  5
DA
100
AcDbEntity
  8
3
  6
Continuous
 62
   214
100
AcDbLine
 10
1285.700446
 20
4371.166106
 30
0.0
 11
1285.700446
 21
4366.166106
 31
0.0
  0
LINE
  5
DB
100
AcDbEntity
  8
3
  6
Continuous
 62
   214
100
AcDbLine
 10
1280.700446
 20
4356.166106
 30
0.0
 11
1280.700446
 21
4361.166106
 31
0.0
  0
LINE
  5
DC
100
AcDbEntity
  8
3
  6
Continuous
 62
   214
100
AcDbLine
 10
1266.700446
 20
4361.166106
 30
0.0
 11
1266.700446
 21
4356.166106
 31
0.0
  0
LINE
  5
DD
100
AcDbEntity
  8
3
  6
CENTER
 62
   214
100
AcDbLine
 10
1273.700446
 20
4375.280852
 30
0.0
 11
1273.700446
 21
4351.137586
 31
0.0
  0
LINE
  5
DE
100
AcDbEntity
  8
3
  6
Continuous
 62
   214
100
AcDbLine
 10
1201.700446
 20
3972.166106
 30
0.0
 11
1201.700446
 21
3967.166106
 31
0.0
  0
LINE
  5
DF
100
AcDbEntity
  8
3
  6
Continuous
 62
   214
100
AcDbLine
 10
1201.700446
 20
3967.166106
 30
0.0
 11
1225.700446
 21
3967.166106
 31
0.0
  0
LINE
  5
E0
100
AcDbEntity
  8
3
  6
Continuous
 62
   214
100
AcDbLine
 10
1225.700446
 20
3967.166106
 30
0.0
 11
1225.700446
 21
3972.166106
 31
0.0
  0
LINE
  5
E1
100
AcDbEntity
  8
3
  6
Continuous
 62
   214
100
AcDbLine
 10
1220.700446
 20
3982.166106
 30
0.0
 11
1220.700446
 21
3977.166106
 31
0.0
  0
LINE
  5
E2
100
AcDbEntity
  8
3
  6
Continuous
 62
   214
100
AcDbLine
 10
1206.700446
 20
3977.166106
 30
0.0
 11
1206.700446
 21
3982.166106
 31
0.0
  0
LINE
  5
E3
100
AcDbEntity
  8
3
  6
Continuous
 62
   214
100
AcDbLine
 10
1206.700446
 20
3977.166106
 30
0.0
 11
1220.700446
 21
3977.166106
 31
0.0
  0
LINE
  5
E4
100
AcDbEntity
  8
3
  6
CENTER
 62
   214
100
AcDbLine
 10
1213.700446
 20
3963.05136
 30
0.0
 11
1213.700446
 21
3987.194627
 31
0.0
  0
LINE
  5
E5
100
AcDbEntity
  8
3
  6
Continuous
 62
   214
100
AcDbLine
 10
1220.845336
 20
4356.166106
 30
0.0
 11
1153.702513
 21
4180.775062
 31
0.0
  0
LINE
  5
E6
100
AcDbEntity
  8
3
  6
Continuous
 62
   214
100
AcDbLine
 10
1413.702513
 20
4366.166106
 30
0.0
 11
1413.702513
 21
4356.166106
 31
0.0
  0
LINE
  5
E7
100
AcDbEntity
  8
3
  6
Continuous
 62
   214
100
AcDbLine
 10
1413.702513
 20
3972.166106
 30
0.0
 11
1413.702513
 21
3982.166106
 31
0.0
  0
ARC
  5
E8
100
AcDbEntity
  8
3
  6
Continuous
 62
   214
100
AcDbCircle
 10
1220.845336
 20
4356.166106
 30
0.0
 40
10.0
100
AcDbArc
 50
90.0
 51
168.310631
  0
LINE
  5
E9
100
AcDbEntity
  8
3
  6
Continuous
 62
   214
100
AcDbLine
 10
1143.702513
 20
4182.166106
 30
0.0
 11
1143.702513
 21
3982.166106
 31
0.0
  0
LINE
  5
EA
100
AcDbEntity
  8
3
  6
Continuous
 62
   214
100
AcDbLine
 10
1413.702513
 20
4366.166106
 30
0.0
 11
1285.700446
 21
4366.166106
 31
0.0
  0
LINE
  5
EB
100
AcDbEntity
  8
3
  6
Continuous
 62
   214
100
AcDbLine
 10
1280.700446
 20
4356.166106
 30
0.0
 11
1413.702513
 21
4356.166106
 31
0.0
  0
LINE
  5
EC
100
AcDbEntity
  8
3
  6
Continuous
 62
   214
100
AcDbLine
 10
1266.700446
 20
4361.166106
 30
0.0
 11
1280.700446
 21
4361.166106
 31
0.0
  0
LINE
  5
ED
100
AcDbEntity
  8
3
  6
Continuous
 62
   214
100
AcDbLine
 10
1220.845336
 20
4356.166106
 30
0.0
 11
1266.700446
 21
4356.166106
 31
0.0
  0
LINE
  5
EE
100
AcDbEntity
  8
3
  6
Continuous
 62
   214
100
AcDbLine
 10
1153.702513
 20
4180.775062
 30
0.0
 11
1153.702513
 21
3982.166106
 31
0.0
  0
ARC
  5
EF
100
AcDbEntity
  8
3
  6
Continuous
 62
   214
100
AcDbCircle
 10
1153.702513
 20
3982.166106
 30
0.0
 40
10.0
100
AcDbArc
 50
180.0
 51
-90.0
  0
LINE
  5
F0
100
AcDbEntity
  8
3
  6
Continuous
 62
   214
100
AcDbLine
 10
1201.700446
 20
3972.166106
 30
0.0
 11
1153.702513
 21
3972.166106
 31
0.0
  0
LINE
  5
F1
100
AcDbEntity
  8
3
  6
Continuous
 62
   214
100
AcDbLine
 10
1206.700446
 20
3982.166106
 30
0.0
 11
1153.702513
 21
3982.166106
 31
0.0
  0
LINE
  5
F2
100
AcDbEntity
  8
3
  6
Continuous
 62
   214
100
AcDbLine
 10
1261.700446
 20
4366.166106
 30
0.0
 11
1213.695985
 21
4366.166106
 31
0.0
  0
LINE
  5
F3
100
AcDbEntity
  8
3
  6
Continuous
 62
   214
100
AcDbLine
 10
1213.695985
 20
4366.166106
 30
0.0
 11
1143.702513
 21
4182.166106
 31
0.0
  0
LINE
  5
F4
100
AcDbEntity
  8
3
  6
Continuous
 62
   214
100
AcDbLine
 10
1413.702513
 20
3982.166106
 30
0.0
 11
1340.700446
 21
3982.166106
 31
0.0
  0
LINE
  5
F5
100
AcDbEntity
  8
3
  6
Continuous
 62
   214
100
AcDbLine
 10
1326.700446
 20
3982.166106
 30
0.0
 11
1220.700446
 21
3982.166106
 31
0.0
  0
LINE
  5
F6
100
AcDbEntity
  8
3
  6
Continuous
 62
   214
100
AcDbLine
 10
1413.702513
 20
3972.166106
 30
0.0
 11
1345.700446
 21
3972.166106
 31
0.0
  0
LINE
  5
F7
100
AcDbEntity
  8
3
  6
Continuous
 62
   214
100
AcDbLine
 10
1321.700446
 20
3972.166106
 30
0.0
 11
1225.700446
 21
3972.166106
 31
0.0
  0
LINE
  5
F8
100
AcDbEntity
  8
3
  6
Continuous
 62
   214
100
AcDbLine
 10
1321.700446
 20
3972.166106
 30
0.0
 11
1321.700446
 21
3967.166106
 31
0.0
  0
LINE
  5
F9
100
AcDbEntity
  8
3
  6
Continuous
 62
   214
100
AcDbLine
 10
1321.700446
 20
3967.166106
 30
0.0
 11
1345.700446
 21
3967.166106
 31
0.0
  0
LINE
  5
FA
100
AcDbEntity
  8
3
  6
Continuous
 62
   214
100
AcDbLine
 10
1345.700446
 20
3967.166106
 30
0.0
 11
1345.700446
 21
3972.166106
 31
0.0
  0
LINE
  5
FB
100
AcDbEntity
  8
3
  6
Continuous
 62
   214
100
AcDbLine
 10
1340.700446
 20
3982.166106
 30
0.0
 11
1340.700446
 21
3977.166106
 31
0.0
  0
LINE
  5
FC
100
AcDbEntity
  8
3
  6
Continuous
 62
   214
100
AcDbLine
 10
1326.700446
 20
3977.166106
 30
0.0
 11
1326.700446
 21
3982.166106
 31
0.0
  0
LINE
  5
FD
100
AcDbEntity
  8
3
  6
Continuous
 62
   214
100
AcDbLine
 10
1326.700446
 20
3977.166106
 30
0.0
 11
1340.700446
 21
3977.166106
 31
0.0
  0
LINE
  5
FE
100
AcDbEntity
  8
3
  6
CENTER
 62
   214
100
AcDbLine
 10
1333.700446
 20
3963.05136
 30
0.0
 11
1333.700446
 21
3987.194627
 31
0.0
  0
ENDBLK
  5
FF
100
AcDbEntity
  8
0
100
AcDbBlockEnd
  0
BLOCK
  5
10F
100
AcDbEntity
  8
3
  6
Continuous
 62
   214
100
AcDbBlockBegin
  2
*G7
 70
     0
 10
0.0
 20
0.0
 30
0.0
  3
*G7
  1

  0
LINE
  5
110
100
AcDbEntity
  8
3
  6
CENTER
 62
   214
100
AcDbLine
 10
495.54841
 20
4079.166106
 30
0.0
 11
2623.276445
 21
4079.166106
 31
0.0
  0
LINE
  5
111
100
AcDbEntity
  8
3
  6
CENTER
 62
   214
100
AcDbLine
 10
1559.412428
 20
3015.302088
 30
0.0
 11
1559.412428
 21
5143.030124
 31
0.0
  0
ENDBLK
  5
112
100
AcDbEntity
  8
0
100
AcDbBlockEnd
  0
BLOCK
  5
115
100
AcDbEntity
  8
3
  6
Continuous
 62
   214
100
AcDbBlockBegin
  2
*D8
 70
     0
 10
0.0
 20
0.0
 30
0.0
  3
*D8
  1

  0
LINE
  5
116
100
AcDbEntity
  8
3
  6
Continuous
 62
   214
100
AcDbLine
 10
1759.412428
 20
5233.945047
 30
0.0
 11
1559.412428
 21
5233.945047
 31
0.0
  0
LINE
  5
117
100
AcDbEntity
  8
3
  6
Continuous
 62
   214
100
AcDbLine
 10
1759.412428
 20
5243.945047
 30
0.0
 11
1759.412428
 21
5153.030124
 31
0.0
  0
LINE
  5
118
100
AcDbEntity
  8
3
  6
Continuous
 62
   214
100
AcDbLine
 10
1559.412428
 20
5243.945047
 30
0.0
 11
1559.412428
 21
5153.030124
 31
0.0
  0
LINE
  5
119
100
AcDbEntity
  8
3
  6
Continuous
 62
   214
100
AcDbLine
 10
1759.412428
 20
5233.945047
 30
0.0
 11
1711.116136
 21
5221.004095
 31
0.0
  0
LINE
  5
11A
100
AcDbEntity
  8
3
  6
Continuous
 62
   214
100
AcDbLine
 10
1759.412428
 20
5233.945047
 30
0.0
 11
1711.116136
 21
5246.886
 31
0.0
  0
LINE
  5
11B
100
AcDbEntity
  8
3
  6
Continuous
 62
   214
100
AcDbLine
 10
1559.412428
 20
5233.945047
 30
0.0
 11
1607.708719
 21
5246.886
 31
0.0
  0
LINE
  5
11C
100
AcDbEntity
  8
3
  6
Continuous
 62
   214
100
AcDbLine
 10
1559.412428
 20
5233.945047
 30
0.0
 11
1607.708719
 21
5221.004095
 31
0.0
  0
TEXT
  5
11D
100
AcDbEntity
  8
3
  6
Continuous
 62
   214
100
AcDbText
 10
1619.412428
 20
5233.945047
 30
0.0
 40
80.0
  1
20
 41
0.5
 11
1619.412428
 21
5233.945047
 31
0.0
100
AcDbText
 73
     1
  0
ENDBLK
  5
11E
100
AcDbEntity
  8
3
  6
Continuous
 62
   214
100
AcDbBlockEnd
  0
BLOCK
  5
121
100
AcDbEntity
  8
3
  6
Continuous
 62
   214
100
AcDbBlockBegin
  2
*D9
 70
     0
 10
0.0
 20
0.0
 30
0.0
  3
*D9
  1

  0
LINE
  5
122
100
AcDbEntity
  8
3
  6
Continuous
 62
   214
100
AcDbLine
 10
594.15721
 20
3817.857161
 30
0.0
 11
2524.667645
 21
4340.475051
 31
0.0
  0
LINE
  5
123
100
AcDbEntity
  8
3
  6
Continuous
 62
   214
100
AcDbLine
 10
594.15721
 20
3817.857161
 30
0.0
 11
637.393871
 21
3842.968736
 31
0.0
  0
LINE
  5
124
100
AcDbEntity
  8
3
  6
Continuous
 62
   214
100
AcDbLine
 10
594.15721
 20
3817.857161
 30
0.0
 11
644.157044
 21
3817.986092
 31
0.0
  0
LINE
  5
125
100
AcDbEntity
  8
3
  6
Continuous
 62
   214
100
AcDbLine
 10
2524.667645
 20
4340.475051
 30
0.0
 11
2481.430985
 21
4315.363477
 31
0.0
  0
LINE
  5
126
100
AcDbEntity
  8
3
  6
Continuous
 62
   214
100
AcDbLine
 10
2524.667645
 20
4340.475051
 30
0.0
 11
2474.667811
 21
4340.34612
 31
0.0
  0
TEXT
  5
127
100
AcDbEntity
  8
3
  6
Continuous
 62
   214
100
AcDbText
 10
1912.212393
 20
4174.674305
 30
0.0
 40
80.0
  1
%%c200
 50
15.147744
 41
0.625
 11
1912.212393
 21
4174.674305
 31
0.0
100
AcDbText
 73
     1
  0
ENDBLK
  5
128
100
AcDbEntity
  8
3
  6
Continuous
 62
   214
100
AcDbBlockEnd
  0
BLOCK
  5
153
100
AcDbEntity
  8
128
  6
Continuous
 62
     7
100
AcDbBlockBegin
  2
*G10
 70
     0
 10
0.0
 20
0.0
 30
0.0
  3
*G10
  1

  0
LINE
  5
154
100
AcDbEntity
  8
128
  6
Continuous
 62
     7
100
AcDbLine
 10
5985.22272
 20
2336.09004
 30
0.0
 11
5985.22272
 21
3296.09004
 31
0.0
  0
LINE
  5
155
100
AcDbEntity
  8
128
  6
Continuous
 62
     7
100
AcDbLine
 10
5985.22272
 20
3296.09004
 30
0.0
 11
7385.22272
 21
3296.09004
 31
0.0
  0
LINE
  5
156
100
AcDbEntity
  8
128
  6
Continuous
 62
     7
100
AcDbLine
 10
7385.22272
 20
3296.09004
 30
0.0
 11
7385.22272
 21
2336.09004
 31
0.0
  0
LINE
  5
157
100
AcDbEntity
  8
128
  6
Continuous
 62
     7
100
AcDbLine
 10
7385.22272
 20
2336.09004
 30
0.0
 11
5985.22272
 21
2336.09004
 31
0.0
  0
ENDBLK
  5
158
100
AcDbEntity
  8
0
100
AcDbBlockEnd
  0
BLOCK
  5
15D
100
AcDbEntity
  8
1
  6
Continuous
 62
     7
100
AcDbBlockBegin
  2
*G11
 70
     0
 10
0.0
 20
0.0
 30
0.0
  3
*G11
  1

  0
LINE
  5
15E
100
AcDbEntity
  8
1
  6
CENTER
 62
     7
100
AcDbLine
 10
2877.885413
 20
4906.234825
 30
0.0
 11
3121.797167
 21
4906.234825
 31
0.0
  0
LINE
  5
15F
100
AcDbEntity
  8
1
  6
CENTER
 62
     7
100
AcDbLine
 10
2999.84129
 20
4784.278948
 30
0.0
 11
2999.84129
 21
5028.190703
 31
0.0
  0
ENDBLK
  5
160
100
AcDbEntity
  8
0
100
AcDbBlockEnd
  0
BLOCK
  5
163
100
AcDbEntity
  8
1
  6
Continuous
 62
     7
100
AcDbBlockBegin
  2
*G12
 70
     0
 10
0.0
 20
0.0
 30
0.0
  3
*G12
  1

  0
LINE
  5
164
100
AcDbEntity
  8
1
  6
CENTER
 62
     7
100
AcDbLine
 10
5157.885413
 20
4906.234825
 30
0.0
 11
5401.797167
 21
4906.234825
 31
0.0
  0
LINE
  5
165
100
AcDbEntity
  8
1
  6
CENTER
 62
     7
100
AcDbLine
 10
5279.84129
 20
4784.278948
 30
0.0
 11
5279.84129
 21
5028.190703
 31
0.0
  0
ENDBLK
  5
166
100
AcDbEntity
  8
0
100
AcDbBlockEnd
  0
BLOCK
  5
169
100
AcDbEntity
  8
1
  6
Continuous
 62
     7
100
AcDbBlockBegin
  2
*D13
 70
     0
 10
0.0
 20
0.0
 30
0.0
  3
*D13
  1

  0
LINE
  5
16A
100
AcDbEntity
  8
1
  6
Continuous
 62
     7
100
AcDbLine
 10
2999.84129
 20
4442.692629
 30
0.0
 11
5279.84129
 21
4442.692629
 31
0.0
  0
LINE
  5
16B
100
AcDbEntity
  8
1
  6
Continuous
 62
     7
100
AcDbLine
 10
2999.84129
 20
4432.692629
 30
0.0
 11
2999.84129
 21
4774.278948
 31
0.0
  0
LINE
  5
16C
100
AcDbEntity
  8
1
  6
Continuous
 62
     7
100
AcDbLine
 10
5279.84129
 20
4432.692629
 30
0.0
 11
5279.84129
 21
4774.278948
 31
0.0
  0
LINE
  5
16D
100
AcDbEntity
  8
1
  6
Continuous
 62
     7
100
AcDbLine
 10
2999.84129
 20
4442.692629
 30
0.0
 11
3048.137581
 21
4455.633581
 31
0.0
  0
LINE
  5
16E
100
AcDbEntity
  8
1
  6
Continuous
 62
     7
100
AcDbLine
 10
2999.84129
 20
4442.692629
 30
0.0
 11
3048.137581
 21
4429.751677
 31
0.0
  0
LINE
  5
16F
100
AcDbEntity
  8
1
  6
Continuous
 62
     7
100
AcDbLine
 10
5279.84129
 20
4442.692629
 30
0.0
 11
5231.544999
 21
4429.751677
 31
0.0
  0
LINE
  5
170
100
AcDbEntity
  8
1
  6
Continuous
 62
     7
100
AcDbLine
 10
5279.84129
 20
4442.692629
 30
0.0
 11
5231.544999
 21
4455.633581
 31
0.0
  0
TEXT
  5
171
100
AcDbEntity
  8
1
  6
Continuous
 62
     7
100
AcDbText
 10
3859.84129
 20
4442.692629
 30
0.0
 40
80.0
  1
1530ボイド中心
 41
0.7
 11
3859.84129
 21
4442.692629
 31
0.0
100
AcDbText
 73
     1
  0
ENDBLK
  5
172
100
AcDbEntity
  8
1
  6
Continuous
 62
     7
100
AcDbBlockEnd
  0
BLOCK
  5
19B
100
AcDbEntity
  8
2
  6
Continuous
 62
   216
100
AcDbBlockBegin
  2
*G14
 70
     0
 10
0.0
 20
0.0
 30
0.0
  3
*G14
  1

  0
LINE
  5
19C
100
AcDbEntity
  8
2
  6
Continuous
 62
   216
100
AcDbLine
 10
1515.944801
 20
1581.385446
 30
0.0
 11
1549.278135
 21
1548.052113
 31
0.0
  0
LINE
  5
19D
100
AcDbEntity
  8
2
  6
Continuous
 62
   216
100
AcDbLine
 10
1515.944801
 20
1648.052113
 30
0.0
 11
1615.944801
 21
1548.052113
 31
0.0
  0
LINE
  5
19E
100
AcDbEntity
  8
2
  6
Continuous
 62
   216
100
AcDbLine
 10
1549.278135
 20
1614.718779
 30
0.0
 11
1582.611468
 21
1648.052113
 31
0.0
  0
LINE
  5
19F
100
AcDbEntity
  8
2
  6
Continuous
 62
   216
100
AcDbLine
 10
1649.278135
 20
1581.385446
 30
0.0
 11
1682.611468
 21
1548.052113
 31
0.0
  0
LINE
  5
1A0
100
AcDbEntity
  8
2
  6
Continuous
 62
   216
100
AcDbLine
 10
1582.611468
 20
1581.385446
 30
0.0
 11
1649.278135
 21
1648.052113
 31
0.0
  0
LINE
  5
1A1
100
AcDbEntity
  8
2
  6
Continuous
 62
   216
100
AcDbLine
 10
1682.611468
 20
1614.718779
 30
0.0
 11
1749.278135
 21
1548.052113
 31
0.0
  0
LINE
  5
1A2
100
AcDbEntity
  8
2
  6
Continuous
 62
   216
100
AcDbLine
 10
1615.944801
 20
1548.052113
 30
0.0
 11
1715.944801
 21
1648.052113
 31
0.0
  0
LINE
  5
1A3
100
AcDbEntity
  8
2
  6
Continuous
 62
   216
100
AcDbLine
 10
1715.944801
 20
1648.052113
 30
0.0
 11
1815.944801
 21
1548.052113
 31
0.0
  0
LINE
  5
1A4
100
AcDbEntity
  8
2
  6
Continuous
 62
   216
100
AcDbLine
 10
1749.278135
 20
1614.718779
 30
0.0
 11
1782.611468
 21
1648.052113
 31
0.0
  0
LINE
  5
1A5
100
AcDbEntity
  8
2
  6
Continuous
 62
   216
100
AcDbLine
 10
1849.278135
 20
1581.385446
 30
0.0
 11
1882.611468
 21
1548.052113
 31
0.0
  0
LINE
  5
1A6
100
AcDbEntity
  8
2
  6
Continuous
 62
   216
100
AcDbLine
 10
1782.611468
 20
1581.385446
 30
0.0
 11
1849.278135
 21
1648.052113
 31
0.0
  0
LINE
  5
1A7
100
AcDbEntity
  8
2
  6
Continuous
 62
   216
100
AcDbLine
 10
1882.611468
 20
1614.718779
 30
0.0
 11
1949.278135
 21
1548.052113
 31
0.0
  0
LINE
  5
1A8
100
AcDbEntity
  8
2
  6
Continuous
 62
   216
100
AcDbLine
 10
1815.944801
 20
1548.052113
 30
0.0
 11
1915.944801
 21
1648.052113
 31
0.0
  0
LINE
  5
1A9
100
AcDbEntity
  8
2
  6
Continuous
 62
   216
100
AcDbLine
 10
1915.944801
 20
1648.052113
 30
0.0
 11
2015.944801
 21
1548.052113
 31
0.0
  0
LINE
  5
1AA
100
AcDbEntity
  8
2
  6
Continuous
 62
   216
100
AcDbLine
 10
1949.278135
 20
1614.718779
 30
0.0
 11
1982.611468
 21
1648.052113
 31
0.0
  0
LINE
  5
1AB
100
AcDbEntity
  8
2
  6
Continuous
 62
   216
100
AcDbLine
 10
2049.278135
 20
1581.385446
 30
0.0
 11
2082.611468
 21
1548.052113
 31
0.0
  0
LINE
  5
1AC
100
AcDbEntity
  8
2
  6
Continuous
 62
   216
100
AcDbLine
 10
1982.611468
 20
1581.385446
 30
0.0
 11
2049.278135
 21
1648.052113
 31
0.0
  0
LINE
  5
1AD
100
AcDbEntity
  8
2
  6
Continuous
 62
   216
100
AcDbLine
 10
2082.611468
 20
1614.718779
 30
0.0
 11
2149.278135
 21
1548.052113
 31
0.0
  0
LINE
  5
1AE
100
AcDbEntity
  8
2
  6
Continuous
 62
   216
100
AcDbLine
 10
2015.944801
 20
1548.052113
 30
0.0
 11
2115.944801
 21
1648.052113
 31
0.0
  0
LINE
  5
1AF
100
AcDbEntity
  8
2
  6
Continuous
 62
   216
100
AcDbLine
 10
2115.944801
 20
1648.052113
 30
0.0
 11
2215.944801
 21
1548.052113
 31
0.0
  0
LINE
  5
1B0
100
AcDbEntity
  8
2
  6
Continuous
 62
   216
100
AcDbLine
 10
2149.278135
 20
1614.718779
 30
0.0
 11
2182.611468
 21
1648.052113
 31
0.0
  0
LINE
  5
1B1
100
AcDbEntity
  8
2
  6
Continuous
 62
   216
100
AcDbLine
 10
2249.278135
 20
1581.385446
 30
0.0
 11
2282.611468
 21
1548.052113
 31
0.0
  0
LINE
  5
1B2
100
AcDbEntity
  8
2
  6
Continuous
 62
   216
100
AcDbLine
 10
2182.611468
 20
1581.385446
 30
0.0
 11
2249.278135
 21
1648.052113
 31
0.0
  0
LINE
  5
1B3
100
AcDbEntity
  8
2
  6
Continuous
 62
   216
100
AcDbLine
 10
2282.611468
 20
1614.718779
 30
0.0
 11
2349.278135
 21
1548.052113
 31
0.0
  0
LINE
  5
1B4
100
AcDbEntity
  8
2
  6
Continuous
 62
   216
100
AcDbLine
 10
2215.944801
 20
1548.052113
 30
0.0
 11
2315.944801
 21
1648.052113
 31
0.0
  0
LINE
  5
1B5
100
AcDbEntity
  8
2
  6
Continuous
 62
   216
100
AcDbLine
 10
2315.944801
 20
1648.052113
 30
0.0
 11
2415.944801
 21
1548.052113
 31
0.0
  0
LINE
  5
1B6
100
AcDbEntity
  8
2
  6
Continuous
 62
   216
100
AcDbLine
 10
2349.278135
 20
1614.718779
 30
0.0
 11
2382.611468
 21
1648.052113
 31
0.0
  0
LINE
  5
1B7
100
AcDbEntity
  8
2
  6
Continuous
 62
   216
100
AcDbLine
 10
2449.278135
 20
1581.385446
 30
0.0
 11
2482.611468
 21
1548.052113
 31
0.0
  0
LINE
  5
1B8
100
AcDbEntity
  8
2
  6
Continuous
 62
   216
100
AcDbLine
 10
2382.611468
 20
1581.385446
 30
0.0
 11
2449.278135
 21
1648.052113
 31
0.0
  0
LINE
  5
1B9
100
AcDbEntity
  8
2
  6
Continuous
 62
   216
100
AcDbLine
 10
2482.611468
 20
1614.718779
 30
0.0
 11
2549.278135
 21
1548.052113
 31
0.0
  0
LINE
  5
1BA
100
AcDbEntity
  8
2
  6
Continuous
 62
   216
100
AcDbLine
 10
2415.944801
 20
1548.052113
 30
0.0
 11
2515.944801
 21
1648.052113
 31
0.0
  0
LINE
  5
1BB
100
AcDbEntity
  8
2
  6
Continuous
 62
   216
100
AcDbLine
 10
2515.944801
 20
1648.052113
 30
0.0
 11
2615.944801
 21
1548.052113
 31
0.0
  0
LINE
  5
1BC
100
AcDbEntity
  8
2
  6
Continuous
 62
   216
100
AcDbLine
 10
2549.278135
 20
1614.718779
 30
0.0
 11
2582.611468
 21
1648.052113
 31
0.0
  0
LINE
  5
1BD
100
AcDbEntity
  8
2
  6
Continuous
 62
   216
100
AcDbLine
 10
2649.278135
 20
1581.385446
 30
0.0
 11
2682.34129
 21
1548.322291
 31
0.0
  0
LINE
  5
1BE
100
AcDbEntity
  8
2
  6
Continuous
 62
   216
100
AcDbLine
 10
2582.611468
 20
1581.385446
 30
0.0
 11
2649.278135
 21
1648.052113
 31
0.0
  0
LINE
  5
1BF
100
AcDbEntity
  8
2
  6
Continuous
 62
   216
100
AcDbLine
 10
2615.944801
 20
1548.052113
 30
0.0
 11
2682.34129
 21
1614.448601
 31
0.0
  0
LINE
  5
1C0
100
AcDbEntity
  8
2
  6
Continuous
 62
   216
100
AcDbLine
 10
1515.944801
 20
1648.052113
 30
0.0
 11
2682.34129
 21
1648.052113
 31
0.0
  0
ENDBLK
  5
1C1
100
AcDbEntity
  8
0
100
AcDbBlockEnd
  0
BLOCK
  5
1C6
100
AcDbEntity
  8
2
  6
Continuous
 62
   216
100
AcDbBlockBegin
  2
*G15
 70
     0
 10
0.0
 20
0.0
 30
0.0
  3
*G15
  1

  0
LINE
  5
1C7
100
AcDbEntity
  8
2
  6
Continuous
 62
   216
100
AcDbLine
 10
5597.34129
 20
1581.385446
 30
0.0
 11
5630.674624
 21
1548.052113
 31
0.0
  0
LINE
  5
1C8
100
AcDbEntity
  8
2
  6
Continuous
 62
   216
100
AcDbLine
 10
5597.34129
 20
1648.052113
 30
0.0
 11
5697.34129
 21
1548.052113
 31
0.0
  0
LINE
  5
1C9
100
AcDbEntity
  8
2
  6
Continuous
 62
   216
100
AcDbLine
 10
5630.674624
 20
1614.718779
 30
0.0
 11
5664.007957
 21
1648.052113
 31
0.0
  0
LINE
  5
1CA
100
AcDbEntity
  8
2
  6
Continuous
 62
   216
100
AcDbLine
 10
5730.674624
 20
1581.385446
 30
0.0
 11
5764.007957
 21
1548.052113
 31
0.0
  0
LINE
  5
1CB
100
AcDbEntity
  8
2
  6
Continuous
 62
   216
100
AcDbLine
 10
5664.007957
 20
1581.385446
 30
0.0
 11
5730.674624
 21
1648.052113
 31
0.0
  0
LINE
  5
1CC
100
AcDbEntity
  8
2
  6
Continuous
 62
   216
100
AcDbLine
 10
5764.007957
 20
1614.718779
 30
0.0
 11
5830.674624
 21
1548.052113
 31
0.0
  0
LINE
  5
1CD
100
AcDbEntity
  8
2
  6
Continuous
 62
   216
100
AcDbLine
 10
5697.34129
 20
1548.052113
 30
0.0
 11
5797.34129
 21
1648.052113
 31
0.0
  0
LINE
  5
1CE
100
AcDbEntity
  8
2
  6
Continuous
 62
   216
100
AcDbLine
 10
5797.34129
 20
1648.052113
 30
0.0
 11
5897.34129
 21
1548.052113
 31
0.0
  0
LINE
  5
1CF
100
AcDbEntity
  8
2
  6
Continuous
 62
   216
100
AcDbLine
 10
5830.674624
 20
1614.718779
 30
0.0
 11
5864.007957
 21
1648.052113
 31
0.0
  0
LINE
  5
1D0
100
AcDbEntity
  8
2
  6
Continuous
 62
   216
100
AcDbLine
 10
5930.674624
 20
1581.385446
 30
0.0
 11
5964.007957
 21
1548.052113
 31
0.0
  0
LINE
  5
1D1
100
AcDbEntity
  8
2
  6
Continuous
 62
   216
100
AcDbLine
 10
5864.007957
 20
1581.385446
 30
0.0
 11
5930.674624
 21
1648.052113
 31
0.0
  0
LINE
  5
1D2
100
AcDbEntity
  8
2
  6
Continuous
 62
   216
100
AcDbLine
 10
5964.007957
 20
1614.718779
 30
0.0
 11
6030.674624
 21
1548.052113
 31
0.0
  0
LINE
  5
1D3
100
AcDbEntity
  8
2
  6
Continuous
 62
   216
100
AcDbLine
 10
5897.34129
 20
1548.052113
 30
0.0
 11
5997.34129
 21
1648.052113
 31
0.0
  0
LINE
  5
1D4
100
AcDbEntity
  8
2
  6
Continuous
 62
   216
100
AcDbLine
 10
5997.34129
 20
1648.052113
 30
0.0
 11
6097.34129
 21
1548.052113
 31
0.0
  0
LINE
  5
1D5
100
AcDbEntity
  8
2
  6
Continuous
 62
   216
100
AcDbLine
 10
6030.674624
 20
1614.718779
 30
0.0
 11
6064.007957
 21
1648.052113
 31
0.0
  0
LINE
  5
1D6
100
AcDbEntity
  8
2
  6
Continuous
 62
   216
100
AcDbLine
 10
6130.674624
 20
1581.385446
 30
0.0
 11
6164.007957
 21
1548.052113
 31
0.0
  0
LINE
  5
1D7
100
AcDbEntity
  8
2
  6
Continuous
 62
   216
100
AcDbLine
 10
6064.007957
 20
1581.385446
 30
0.0
 11
6130.674624
 21
1648.052113
 31
0.0
  0
LINE
  5
1D8
100
AcDbEntity
  8
2
  6
Continuous
 62
   216
100
AcDbLine
 10
6164.007957
 20
1614.718779
 30
0.0
 11
6206.486839
 21
1572.239897
 31
0.0
  0
LINE
  5
1D9
100
AcDbEntity
  8
2
  6
Continuous
 62
   216
100
AcDbLine
 10
6097.34129
 20
1548.052113
 30
0.0
 11
6197.34129
 21
1648.052113
 31
0.0
  0
LINE
  5
1DA
100
AcDbEntity
  8
2
  6
Continuous
 62
   216
100
AcDbLine
 10
6197.34129
 20
1648.052113
 30
0.0
 11
6206.486839
 21
1638.906564
 31
0.0
  0
LINE
  5
1DB
100
AcDbEntity
  8
2
  6
Continuous
 62
   216
100
AcDbLine
 10
5597.34129
 20
1648.052113
 30
0.0
 11
6206.486839
 21
1648.052113
 31
0.0
  0
ENDBLK
  5
1DC
100
AcDbEntity
  8
0
100
AcDbBlockEnd
  0
BLOCK
  5
1DF
100
AcDbEntity
  8
2
  6
Continuous
 62
   216
100
AcDbBlockBegin
  2
*G16
 70
     0
 10
0.0
 20
0.0
 30
0.0
  3
*G16
  1

  0
LINE
  5
1E0
100
AcDbEntity
  8
2
  6
Continuous
 62
   216
100
AcDbLine
 10
3282.34129
 20
1581.385446
 30
0.0
 11
3315.674623
 21
1548.052113
 31
0.0
  0
LINE
  5
1E1
100
AcDbEntity
  8
2
  6
Continuous
 62
   216
100
AcDbLine
 10
3282.34129
 20
1648.052113
 30
0.0
 11
3382.34129
 21
1548.052113
 31
0.0
  0
LINE
  5
1E2
100
AcDbEntity
  8
2
  6
Continuous
 62
   216
100
AcDbLine
 10
3315.674623
 20
1614.718779
 30
0.0
 11
3349.007957
 21
1648.052113
 31
0.0
  0
LINE
  5
1E3
100
AcDbEntity
  8
2
  6
Continuous
 62
   216
100
AcDbLine
 10
3415.674623
 20
1581.385446
 30
0.0
 11
3449.007957
 21
1548.052113
 31
0.0
  0
LINE
  5
1E4
100
AcDbEntity
  8
2
  6
Continuous
 62
   216
100
AcDbLine
 10
3349.007957
 20
1581.385446
 30
0.0
 11
3415.674623
 21
1648.052113
 31
0.0
  0
LINE
  5
1E5
100
AcDbEntity
  8
2
  6
Continuous
 62
   216
100
AcDbLine
 10
3449.007957
 20
1614.718779
 30
0.0
 11
3515.674623
 21
1548.052113
 31
0.0
  0
LINE
  5
1E6
100
AcDbEntity
  8
2
  6
Continuous
 62
   216
100
AcDbLine
 10
3382.34129
 20
1548.052113
 30
0.0
 11
3482.34129
 21
1648.052113
 31
0.0
  0
LINE
  5
1E7
100
AcDbEntity
  8
2
  6
Continuous
 62
   216
100
AcDbLine
 10
3482.34129
 20
1648.052113
 30
0.0
 11
3582.34129
 21
1548.052113
 31
0.0
  0
LINE
  5
1E8
100
AcDbEntity
  8
2
  6
Continuous
 62
   216
100
AcDbLine
 10
3515.674623
 20
1614.718779
 30
0.0
 11
3549.007957
 21
1648.052113
 31
0.0
  0
LINE
  5
1E9
100
AcDbEntity
  8
2
  6
Continuous
 62
   216
100
AcDbLine
 10
3615.674623
 20
1581.385446
 30
0.0
 11
3649.007957
 21
1548.052113
 31
0.0
  0
LINE
  5
1EA
100
AcDbEntity
  8
2
  6
Continuous
 62
   216
100
AcDbLine
 10
3549.007957
 20
1581.385446
 30
0.0
 11
3615.674623
 21
1648.052113
 31
0.0
  0
LINE
  5
1EB
100
AcDbEntity
  8
2
  6
Continuous
 62
   216
100
AcDbLine
 10
3649.007957
 20
1614.718779
 30
0.0
 11
3715.674623
 21
1548.052113
 31
0.0
  0
LINE
  5
1EC
100
AcDbEntity
  8
2
  6
Continuous
 62
   216
100
AcDbLine
 10
3582.34129
 20
1548.052113
 30
0.0
 11
3682.34129
 21
1648.052113
 31
0.0
  0
LINE
  5
1ED
100
AcDbEntity
  8
2
  6
Continuous
 62
   216
100
AcDbLine
 10
3682.34129
 20
1648.052113
 30
0.0
 11
3782.34129
 21
1548.052113
 31
0.0
  0
LINE
  5
1EE
100
AcDbEntity
  8
2
  6
Continuous
 62
   216
100
AcDbLine
 10
3715.674623
 20
1614.718779
 30
0.0
 11
3749.007957
 21
1648.052113
 31
0.0
  0
LINE
  5
1EF
100
AcDbEntity
  8
2
  6
Continuous
 62
   216
100
AcDbLine
 10
3815.674623
 20
1581.385446
 30
0.0
 11
3849.007957
 21
1548.052113
 31
0.0
  0
LINE
  5
1F0
100
AcDbEntity
  8
2
  6
Continuous
 62
   216
100
AcDbLine
 10
3749.007957
 20
1581.385446
 30
0.0
 11
3815.674623
 21
1648.052113
 31
0.0
  0
LINE
  5
1F1
100
AcDbEntity
  8
2
  6
Continuous
 62
   216
100
AcDbLine
 10
3849.007957
 20
1614.718779
 30
0.0
 11
3915.674623
 21
1548.052113
 31
0.0
  0
LINE
  5
1F2
100
AcDbEntity
  8
2
  6
Continuous
 62
   216
100
AcDbLine
 10
3782.34129
 20
1548.052113
 30
0.0
 11
3882.34129
 21
1648.052113
 31
0.0
  0
LINE
  5
1F3
100
AcDbEntity
  8
2
  6
Continuous
 62
   216
100
AcDbLine
 10
3882.34129
 20
1648.052113
 30
0.0
 11
3982.34129
 21
1548.052113
 31
0.0
  0
LINE
  5
1F4
100
AcDbEntity
  8
2
  6
Continuous
 62
   216
100
AcDbLine
 10
3915.674623
 20
1614.718779
 30
0.0
 11
3949.007957
 21
1648.052113
 31
0.0
  0
LINE
  5
1F5
100
AcDbEntity
  8
2
  6
Continuous
 62
   216
100
AcDbLine
 10
4015.674623
 20
1581.385446
 30
0.0
 11
4049.007957
 21
1548.052113
 31
0.0
  0
LINE
  5
1F6
100
AcDbEntity
  8
2
  6
Continuous
 62
   216
100
AcDbLine
 10
3949.007957
 20
1581.385446
 30
0.0
 11
4015.674623
 21
1648.052113
 31
0.0
  0
LINE
  5
1F7
100
AcDbEntity
  8
2
  6
Continuous
 62
   216
100
AcDbLine
 10
4049.007957
 20
1614.718779
 30
0.0
 11
4115.674623
 21
1548.052113
 31
0.0
  0
LINE
  5
1F8
100
AcDbEntity
  8
2
  6
Continuous
 62
   216
100
AcDbLine
 10
3982.34129
 20
1548.052113
 30
0.0
 11
4082.34129
 21
1648.052113
 31
0.0
  0
LINE
  5
1F9
100
AcDbEntity
  8
2
  6
Continuous
 62
   216
100
AcDbLine
 10
4082.34129
 20
1648.052113
 30
0.0
 11
4182.34129
 21
1548.052113
 31
0.0
  0
LINE
  5
1FA
100
AcDbEntity
  8
2
  6
Continuous
 62
   216
100
AcDbLine
 10
4115.674623
 20
1614.718779
 30
0.0
 11
4149.007957
 21
1648.052113
 31
0.0
  0
LINE
  5
1FB
100
AcDbEntity
  8
2
  6
Continuous
 62
   216
100
AcDbLine
 10
4215.674623
 20
1581.385446
 30
0.0
 11
4249.007957
 21
1548.052113
 31
0.0
  0
LINE
  5
1FC
100
AcDbEntity
  8
2
  6
Continuous
 62
   216
100
AcDbLine
 10
4149.007957
 20
1581.385446
 30
0.0
 11
4215.674623
 21
1648.052113
 31
0.0
  0
LINE
  5
1FD
100
AcDbEntity
  8
2
  6
Continuous
 62
   216
100
AcDbLine
 10
4249.007957
 20
1614.718779
 30
0.0
 11
4315.674623
 21
1548.052113
 31
0.0
  0
LINE
  5
1FE
100
AcDbEntity
  8
2
  6
Continuous
 62
   216
100
AcDbLine
 10
4182.34129
 20
1548.052113
 30
0.0
 11
4282.34129
 21
1648.052113
 31
0.0
  0
LINE
  5
1FF
100
AcDbEntity
  8
2
  6
Continuous
 62
   216
100
AcDbLine
 10
4282.34129
 20
1648.052113
 30
0.0
 11
4382.34129
 21
1548.052113
 31
0.0
  0
LINE
  5
200
100
AcDbEntity
  8
2
  6
Continuous
 62
   216
100
AcDbLine
 10
4315.674623
 20
1614.718779
 30
0.0
 11
4349.007957
 21
1648.052113
 31
0.0
  0
LINE
  5
201
100
AcDbEntity
  8
2
  6
Continuous
 62
   216
100
AcDbLine
 10
4415.674623
 20
1581.385446
 30
0.0
 11
4449.007957
 21
1548.052113
 31
0.0
  0
LINE
  5
202
100
AcDbEntity
  8
2
  6
Continuous
 62
   216
100
AcDbLine
 10
4349.007957
 20
1581.385446
 30
0.0
 11
4415.674623
 21
1648.052113
 31
0.0
  0
LINE
  5
203
100
AcDbEntity
  8
2
  6
Continuous
 62
   216
100
AcDbLine
 10
4449.007957
 20
1614.718779
 30
0.0
 11
4515.674623
 21
1548.052113
 31
0.0
  0
LINE
  5
204
100
AcDbEntity
  8
2
  6
Continuous
 62
   216
100
AcDbLine
 10
4382.34129
 20
1548.052113
 30
0.0
 11
4482.34129
 21
1648.052113
 31
0.0
  0
LINE
  5
205
100
AcDbEntity
  8
2
  6
Continuous
 62
   216
100
AcDbLine
 10
4482.34129
 20
1648.052113
 30
0.0
 11
4582.34129
 21
1548.052113
 31
0.0
  0
LINE
  5
206
100
AcDbEntity
  8
2
  6
Continuous
 62
   216
100
AcDbLine
 10
4515.674623
 20
1614.718779
 30
0.0
 11
4549.007957
 21
1648.052113
 31
0.0
  0
LINE
  5
207
100
AcDbEntity
  8
2
  6
Continuous
 62
   216
100
AcDbLine
 10
4615.674623
 20
1581.385446
 30
0.0
 11
4649.007957
 21
1548.052113
 31
0.0
  0
LINE
  5
208
100
AcDbEntity
  8
2
  6
Continuous
 62
   216
100
AcDbLine
 10
4549.007957
 20
1581.385446
 30
0.0
 11
4615.674623
 21
1648.052113
 31
0.0
  0
LINE
  5
209
100
AcDbEntity
  8
2
  6
Continuous
 62
   216
100
AcDbLine
 10
4649.007957
 20
1614.718779
 30
0.0
 11
4715.674623
 21
1548.052113
 31
0.0
  0
LINE
  5
20A
100
AcDbEntity
  8
2
  6
Continuous
 62
   216
100
AcDbLine
 10
4582.34129
 20
1548.052113
 30
0.0
 11
4682.34129
 21
1648.052113
 31
0.0
  0
LINE
  5
20B
100
AcDbEntity
  8
2
  6
Continuous
 62
   216
100
AcDbLine
 10
4682.34129
 20
1648.052113
 30
0.0
 11
4782.34129
 21
1548.052113
 31
0.0
  0
LINE
  5
20C
100
AcDbEntity
  8
2
  6
Continuous
 62
   216
100
AcDbLine
 10
4715.674623
 20
1614.718779
 30
0.0
 11
4749.007957
 21
1648.052113
 31
0.0
  0
LINE
  5
20D
100
AcDbEntity
  8
2
  6
Continuous
 62
   216
100
AcDbLine
 10
4815.674623
 20
1581.385446
 30
0.0
 11
4849.007957
 21
1548.052113
 31
0.0
  0
LINE
  5
20E
100
AcDbEntity
  8
2
  6
Continuous
 62
   216
100
AcDbLine
 10
4749.007957
 20
1581.385446
 30
0.0
 11
4815.674623
 21
1648.052113
 31
0.0
  0
LINE
  5
20F
100
AcDbEntity
  8
2
  6
Continuous
 62
   216
100
AcDbLine
 10
4849.007957
 20
1614.718779
 30
0.0
 11
4915.674623
 21
1548.052113
 31
0.0
  0
LINE
  5
210
100
AcDbEntity
  8
2
  6
Continuous
 62
   216
100
AcDbLine
 10
4782.34129
 20
1548.052113
 30
0.0
 11
4882.34129
 21
1648.052113
 31
0.0
  0
LINE
  5
211
100
AcDbEntity
  8
2
  6
Continuous
 62
   216
100
AcDbLine
 10
4882.34129
 20
1648.052113
 30
0.0
 11
4982.34129
 21
1548.052113
 31
0.0
  0
LINE
  5
212
100
AcDbEntity
  8
2
  6
Continuous
 62
   216
100
AcDbLine
 10
4915.674623
 20
1614.718779
 30
0.0
 11
4949.007957
 21
1648.052113
 31
0.0
  0
LINE
  5
213
100
AcDbEntity
  8
2
  6
Continuous
 62
   216
100
AcDbLine
 10
4949.007957
 20
1581.385446
 30
0.0
 11
4997.34129
 21
1629.71878
 31
0.0
  0
LINE
  5
214
100
AcDbEntity
  8
2
  6
Continuous
 62
   216
100
AcDbLine
 10
4982.34129
 20
1548.052113
 30
0.0
 11
4997.34129
 21
1563.052113
 31
0.0
  0
LINE
  5
215
100
AcDbEntity
  8
2
  6
Continuous
 62
   216
100
AcDbLine
 10
3282.34129
 20
1648.052113
 30
0.0
 11
4997.34129
 21
1648.052113
 31
0.0
  0
ENDBLK
  5
216
100
AcDbEntity
  8
0
100
AcDbBlockEnd
  0
BLOCK
  5
219
100
AcDbEntity
  8
1
  6
Continuous
 62
     7
100
AcDbBlockBegin
  2
*D17
 70
     0
 10
0.0
 20
0.0
 30
0.0
  3
*D17
  1

  0
LINE
  5
21A
100
AcDbEntity
  8
1
  6
Continuous
 62
     7
100
AcDbLine
 10
4817.964463
 20
2548.052113
 30
0.0
 11
4817.964463
 21
1648.052113
 31
0.0
  0
LINE
  5
21B
100
AcDbEntity
  8
1
  6
Continuous
 62
     7
100
AcDbLine
 10
4807.964463
 20
1648.052113
 30
0.0
 11
4841.668098
 21
1648.052113
 31
0.0
  0
LINE
  5
21C
100
AcDbEntity
  8
1
  6
Continuous
 62
     7
100
AcDbLine
 10
4817.964463
 20
2548.052113
 30
0.0
 11
4830.905415
 21
2499.755821
 31
0.0
  0
LINE
  5
21D
100
AcDbEntity
  8
1
  6
Continuous
 62
     7
100
AcDbLine
 10
4817.964463
 20
2548.052113
 30
0.0
 11
4805.023511
 21
2499.755821
 31
0.0
  0
LINE
  5
21E
100
AcDbEntity
  8
1
  6
Continuous
 62
     7
100
AcDbLine
 10
4817.964463
 20
1648.052113
 30
0.0
 11
4805.023511
 21
1696.348404
 31
0.0
  0
LINE
  5
21F
100
AcDbEntity
  8
1
  6
Continuous
 62
     7
100
AcDbLine
 10
4817.964463
 20
1648.052113
 30
0.0
 11
4830.905415
 21
1696.348404
 31
0.0
  0
TEXT
  5
220
100
AcDbEntity
  8
1
  6
Continuous
 62
     7
100
AcDbText
 10
4817.964463
 20
2038.052113
 30
0.0
 40
80.0
  1
900
 50
90.0
 41
0.5
 11
4817.964463
 21
2038.052113
 31
0.0
100
AcDbText
 73
     1
  0
ENDBLK
  5
221
100
AcDbEntity
  8
1
  6
Continuous
 62
     7
100
AcDbBlockEnd
  0
BLOCK
  5
224
100
AcDbEntity
  8
1
  6
Continuous
 62
     7
100
AcDbBlockBegin
  2
*D18
 70
     0
 10
0.0
 20
0.0
 30
0.0
  3
*D18
  1

  0
LINE
  5
225
100
AcDbEntity
  8
1
  6
Continuous
 62
     7
100
AcDbLine
 10
4817.964463
 20
2548.052113
 30
0.0
 11
4817.964463
 21
4048.052113
 31
0.0
  0
LINE
  5
226
100
AcDbEntity
  8
1
  6
Continuous
 62
     7
100
AcDbLine
 10
4807.964463
 20
2548.052113
 30
0.0
 11
4831.771942
 21
2548.052113
 31
0.0
  0
LINE
  5
227
100
AcDbEntity
  8
1
  6
Continuous
 62
     7
100
AcDbLine
 10
4817.964463
 20
2548.052113
 30
0.0
 11
4805.023511
 21
2596.348404
 31
0.0
  0
LINE
  5
228
100
AcDbEntity
  8
1
  6
Continuous
 62
     7
100
AcDbLine
 10
4817.964463
 20
2548.052113
 30
0.0
 11
4830.905415
 21
2596.348404
 31
0.0
  0
LINE
  5
229
100
AcDbEntity
  8
1
  6
Continuous
 62
     7
100
AcDbLine
 10
4817.964463
 20
4048.052113
 30
0.0
 11
4830.905415
 21
3999.755821
 31
0.0
  0
LINE
  5
22A
100
AcDbEntity
  8
1
  6
Continuous
 62
     7
100
AcDbLine
 10
4817.964463
 20
4048.052113
 30
0.0
 11
4805.023511
 21
3999.755821
 31
0.0
  0
TEXT
  5
22B
100
AcDbEntity
  8
1
  6
Continuous
 62
     7
100
AcDbText
 10
4817.964463
 20
3258.052113
 30
0.0
 40
80.0
  1
Ｈ
 50
90.0
 41
0.833333
 11
4817.964463
 21
3258.052113
 31
0.0
100
AcDbText
 73
     1
  0
ENDBLK
  5
22C
100
AcDbEntity
  8
1
  6
Continuous
 62
     7
100
AcDbBlockEnd
  0
BLOCK
  5
231
100
AcDbEntity
  8
1
  6
Continuous
 62
     7
100
AcDbBlockBegin
  2
*D19
 70
     0
 10
0.0
 20
0.0
 30
0.0
  3
*D19
  1

  0
LINE
  5
232
100
AcDbEntity
  8
1
  6
Continuous
 62
     7
100
AcDbLine
 10
3142.34129
 20
2130.740034
 30
0.0
 11
2308.736151
 21
2130.740034
 31
0.0
  0
LINE
  5
233
100
AcDbEntity
  8
1
  6
Continuous
 62
     7
100
AcDbLine
 10
3042.34129
 20
2130.740034
 30
0.0
 11
3090.637581
 21
2143.680987
 31
0.0
  0
LINE
  5
234
100
AcDbEntity
  8
1
  6
Continuous
 62
     7
100
AcDbLine
 10
3042.34129
 20
2130.740034
 30
0.0
 11
3090.637581
 21
2117.799082
 31
0.0
  0
LINE
  5
235
100
AcDbEntity
  8
1
  6
Continuous
 62
     7
100
AcDbLine
 10
2917.34129
 20
2130.740034
 30
0.0
 11
2869.044999
 21
2117.799082
 31
0.0
  0
LINE
  5
236
100
AcDbEntity
  8
1
  6
Continuous
 62
     7
100
AcDbLine
 10
2917.34129
 20
2130.740034
 30
0.0
 11
2869.044999
 21
2143.680987
 31
0.0
  0
TEXT
  5
237
100
AcDbEntity
  8
1
  6
Continuous
 62
     7
100
AcDbText
 10
2328.736151
 20
2130.740034
 30
0.0
 40
80.0
  1
支柱外径%%c125
 41
0.738636
 11
2328.736151
 21
2130.740034
 31
0.0
100
AcDbText
 73
     1
  0
ENDBLK
  5
238
100
AcDbEntity
  8
1
  6
Continuous
 62
     7
100
AcDbBlockEnd
  0
BLOCK
  5
23F
100
AcDbEntity
  8
2
  6
Continuous
 62
   216
100
AcDbBlockBegin
  2
*G20
 70
     0
 10
0.0
 20
0.0
 30
0.0
  3
*G20
  1

  0
CIRCLE
  5
240
100
AcDbEntity
  8
2
  6
Continuous
 62
   216
100
AcDbCircle
 10
2600.408947
 20
934.052113
 30
0.0
 40
9.0
  0
CIRCLE
  5
241
100
AcDbEntity
  8
2
  6
Continuous
 62
   216
100
AcDbCircle
 10
2578.408947
 20
922.052113
 30
0.0
 40
4.0
  0
CIRCLE
  5
242
100
AcDbEntity
  8
2
  6
Continuous
 62
   216
100
AcDbCircle
 10
2580.408947
 20
886.052113
 30
0.0
 40
7.0
  0
CIRCLE
  5
243
100
AcDbEntity
  8
2
  6
Continuous
 62
   216
100
AcDbCircle
 10
2599.408947
 20
904.052113
 30
0.0
 40
6.0
  0
CIRCLE
  5
244
100
AcDbEntity
  8
2
  6
Continuous
 62
   216
100
AcDbCircle
 10
2596.408947
 20
866.052113
 30
0.0
 40
5.0
  0
CIRCLE
  5
245
100
AcDbEntity
  8
2
  6
Continuous
 62
   216
100
AcDbCircle
 10
2643.408947
 20
932.052113
 30
0.0
 40
3.0
  0
CIRCLE
  5
246
100
AcDbEntity
  8
2
  6
Continuous
 62
   216
100
AcDbCircle
 10
2634.408947
 20
904.052113
 30
0.0
 40
9.0
  0
CIRCLE
  5
247
100
AcDbEntity
  8
2
  6
Continuous
 62
   216
100
AcDbCircle
 10
2621.408947
 20
884.052113
 30
0.0
 40
5.0
  0
CIRCLE
  5
248
100
AcDbEntity
  8
2
  6
Continuous
 62
   216
100
AcDbCircle
 10
2623.408947
 20
866.052113
 30
0.0
 40
4.0
  0
CIRCLE
  5
249
100
AcDbEntity
  8
2
  6
Continuous
 62
   216
100
AcDbCircle
 10
2650.408947
 20
863.052113
 30
0.0
 40
6.0
  0
CIRCLE
  5
24A
100
AcDbEntity
  8
2
  6
Continuous
 62
   216
100
AcDbCircle
 10
2671.408947
 20
920.052113
 30
0.0
 40
5.0
  0
CIRCLE
  5
24B
100
AcDbEntity
  8
2
  6
Continuous
 62
   216
100
AcDbCircle
 10
2671.408947
 20
886.052113
 30
0.0
 40
5.0
  0
CIRCLE
  5
24C
100
AcDbEntity
  8
2
  6
Continuous
 62
   216
100
AcDbCircle
 10
2696.408947
 20
933.052113
 30
0.0
 40
7.0
  0
CIRCLE
  5
24D
100
AcDbEntity
  8
2
  6
Continuous
 62
   216
100
AcDbCircle
 10
2686.408947
 20
910.052113
 30
0.0
 40
5.0
  0
CIRCLE
  5
24E
100
AcDbEntity
  8
2
  6
Continuous
 62
   216
100
AcDbCircle
 10
2706.408947
 20
903.052113
 30
0.0
 40
4.0
  0
CIRCLE
  5
24F
100
AcDbEntity
  8
2
  6
Continuous
 62
   216
100
AcDbCircle
 10
2698.408947
 20
858.052113
 30
0.0
 40
3.0
  0
CIRCLE
  5
250
100
AcDbEntity
  8
2
  6
Continuous
 62
   216
100
AcDbCircle
 10
2750.408947
 20
934.052113
 30
0.0
 40
9.0
  0
CIRCLE
  5
251
100
AcDbEntity
  8
2
  6
Continuous
 62
   216
100
AcDbCircle
 10
2728.408947
 20
922.052113
 30
0.0
 40
4.0
  0
CIRCLE
  5
252
100
AcDbEntity
  8
2
  6
Continuous
 62
   216
100
AcDbCircle
 10
2730.408947
 20
886.052113
 30
0.0
 40
7.0
  0
CIRCLE
  5
253
100
AcDbEntity
  8
2
  6
Continuous
 62
   216
100
AcDbCircle
 10
2749.408947
 20
904.052113
 30
0.0
 40
6.0
  0
CIRCLE
  5
254
100
AcDbEntity
  8
2
  6
Continuous
 62
   216
100
AcDbCircle
 10
2746.408947
 20
866.052113
 30
0.0
 40
5.0
  0
CIRCLE
  5
255
100
AcDbEntity
  8
2
  6
Continuous
 62
   216
100
AcDbCircle
 10
2793.408947
 20
932.052113
 30
0.0
 40
3.0
  0
CIRCLE
  5
256
100
AcDbEntity
  8
2
  6
Continuous
 62
   216
100
AcDbCircle
 10
2784.408947
 20
904.052113
 30
0.0
 40
9.0
  0
CIRCLE
  5
257
100
AcDbEntity
  8
2
  6
Continuous
 62
   216
100
AcDbCircle
 10
2771.408947
 20
884.052113
 30
0.0
 40
5.0
  0
CIRCLE
  5
258
100
AcDbEntity
  8
2
  6
Continuous
 62
   216
100
AcDbCircle
 10
2773.408947
 20
866.052113
 30
0.0
 40
4.0
  0
CIRCLE
  5
259
100
AcDbEntity
  8
2
  6
Continuous
 62
   216
100
AcDbCircle
 10
2800.408947
 20
863.052113
 30
0.0
 40
6.0
  0
CIRCLE
  5
25A
100
AcDbEntity
  8
2
  6
Continuous
 62
   216
100
AcDbCircle
 10
2821.408947
 20
920.052113
 30
0.0
 40
5.0
  0
CIRCLE
  5
25B
100
AcDbEntity
  8
2
  6
Continuous
 62
   216
100
AcDbCircle
 10
2821.408947
 20
886.052113
 30
0.0
 40
5.0
  0
CIRCLE
  5
25C
100
AcDbEntity
  8
2
  6
Continuous
 62
   216
100
AcDbCircle
 10
2846.408947
 20
933.052113
 30
0.0
 40
7.0
  0
CIRCLE
  5
25D
100
AcDbEntity
  8
2
  6
Continuous
 62
   216
100
AcDbCircle
 10
2836.408947
 20
910.052113
 30
0.0
 40
5.0
  0
CIRCLE
  5
25E
100
AcDbEntity
  8
2
  6
Continuous
 62
   216
100
AcDbCircle
 10
2856.408947
 20
903.052113
 30
0.0
 40
4.0
  0
CIRCLE
  5
25F
100
AcDbEntity
  8
2
  6
Continuous
 62
   216
100
AcDbCircle
 10
2848.408947
 20
858.052113
 30
0.0
 40
3.0
  0
CIRCLE
  5
260
100
AcDbEntity
  8
2
  6
Continuous
 62
   216
100
AcDbCircle
 10
2900.408947
 20
934.052113
 30
0.0
 40
9.0
  0
CIRCLE
  5
261
100
AcDbEntity
  8
2
  6
Continuous
 62
   216
100
AcDbCircle
 10
2878.408947
 20
922.052113
 30
0.0
 40
4.0
  0
CIRCLE
  5
262
100
AcDbEntity
  8
2
  6
Continuous
 62
   216
100
AcDbCircle
 10
2880.408947
 20
886.052113
 30
0.0
 40
7.0
  0
CIRCLE
  5
263
100
AcDbEntity
  8
2
  6
Continuous
 62
   216
100
AcDbCircle
 10
2899.408947
 20
904.052113
 30
0.0
 40
6.0
  0
CIRCLE
  5
264
100
AcDbEntity
  8
2
  6
Continuous
 62
   216
100
AcDbCircle
 10
2896.408947
 20
866.052113
 30
0.0
 40
5.0
  0
CIRCLE
  5
265
100
AcDbEntity
  8
2
  6
Continuous
 62
   216
100
AcDbCircle
 10
2943.408947
 20
932.052113
 30
0.0
 40
3.0
  0
CIRCLE
  5
266
100
AcDbEntity
  8
2
  6
Continuous
 62
   216
100
AcDbCircle
 10
2934.408947
 20
904.052113
 30
0.0
 40
9.0
  0
CIRCLE
  5
267
100
AcDbEntity
  8
2
  6
Continuous
 62
   216
100
AcDbCircle
 10
2921.408947
 20
884.052113
 30
0.0
 40
5.0
  0
CIRCLE
  5
268
100
AcDbEntity
  8
2
  6
Continuous
 62
   216
100
AcDbCircle
 10
2923.408947
 20
866.052113
 30
0.0
 40
4.0
  0
CIRCLE
  5
269
100
AcDbEntity
  8
2
  6
Continuous
 62
   216
100
AcDbCircle
 10
2950.408947
 20
863.052113
 30
0.0
 40
6.0
  0
CIRCLE
  5
26A
100
AcDbEntity
  8
2
  6
Continuous
 62
   216
100
AcDbCircle
 10
2971.408947
 20
920.052113
 30
0.0
 40
5.0
  0
CIRCLE
  5
26B
100
AcDbEntity
  8
2
  6
Continuous
 62
   216
100
AcDbCircle
 10
2971.408947
 20
886.052113
 30
0.0
 40
5.0
  0
CIRCLE
  5
26C
100
AcDbEntity
  8
2
  6
Continuous
 62
   216
100
AcDbCircle
 10
2996.408947
 20
933.052113
 30
0.0
 40
7.0
  0
CIRCLE
  5
26D
100
AcDbEntity
  8
2
  6
Continuous
 62
   216
100
AcDbCircle
 10
2986.408947
 20
910.052113
 30
0.0
 40
5.0
  0
CIRCLE
  5
26E
100
AcDbEntity
  8
2
  6
Continuous
 62
   216
100
AcDbCircle
 10
3006.408947
 20
903.052113
 30
0.0
 40
4.0
  0
CIRCLE
  5
26F
100
AcDbEntity
  8
2
  6
Continuous
 62
   216
100
AcDbCircle
 10
2998.408947
 20
858.052113
 30
0.0
 40
3.0
  0
CIRCLE
  5
270
100
AcDbEntity
  8
2
  6
Continuous
 62
   216
100
AcDbCircle
 10
3050.408947
 20
934.052113
 30
0.0
 40
9.0
  0
CIRCLE
  5
271
100
AcDbEntity
  8
2
  6
Continuous
 62
   216
100
AcDbCircle
 10
3028.408947
 20
922.052113
 30
0.0
 40
4.0
  0
CIRCLE
  5
272
100
AcDbEntity
  8
2
  6
Continuous
 62
   216
100
AcDbCircle
 10
3030.408947
 20
886.052113
 30
0.0
 40
7.0
  0
CIRCLE
  5
273
100
AcDbEntity
  8
2
  6
Continuous
 62
   216
100
AcDbCircle
 10
3049.408947
 20
904.052113
 30
0.0
 40
6.0
  0
CIRCLE
  5
274
100
AcDbEntity
  8
2
  6
Continuous
 62
   216
100
AcDbCircle
 10
3046.408947
 20
866.052113
 30
0.0
 40
5.0
  0
CIRCLE
  5
275
100
AcDbEntity
  8
2
  6
Continuous
 62
   216
100
AcDbCircle
 10
3093.408947
 20
932.052113
 30
0.0
 40
3.0
  0
CIRCLE
  5
276
100
AcDbEntity
  8
2
  6
Continuous
 62
   216
100
AcDbCircle
 10
3084.408947
 20
904.052113
 30
0.0
 40
9.0
  0
CIRCLE
  5
277
100
AcDbEntity
  8
2
  6
Continuous
 62
   216
100
AcDbCircle
 10
3071.408947
 20
884.052113
 30
0.0
 40
5.0
  0
CIRCLE
  5
278
100
AcDbEntity
  8
2
  6
Continuous
 62
   216
100
AcDbCircle
 10
3073.408947
 20
866.052113
 30
0.0
 40
4.0
  0
CIRCLE
  5
279
100
AcDbEntity
  8
2
  6
Continuous
 62
   216
100
AcDbCircle
 10
3100.408947
 20
863.052113
 30
0.0
 40
6.0
  0
CIRCLE
  5
27A
100
AcDbEntity
  8
2
  6
Continuous
 62
   216
100
AcDbCircle
 10
3121.408947
 20
920.052113
 30
0.0
 40
5.0
  0
CIRCLE
  5
27B
100
AcDbEntity
  8
2
  6
Continuous
 62
   216
100
AcDbCircle
 10
3121.408947
 20
886.052113
 30
0.0
 40
5.0
  0
CIRCLE
  5
27C
100
AcDbEntity
  8
2
  6
Continuous
 62
   216
100
AcDbCircle
 10
3146.408947
 20
933.052113
 30
0.0
 40
7.0
  0
CIRCLE
  5
27D
100
AcDbEntity
  8
2
  6
Continuous
 62
   216
100
AcDbCircle
 10
3136.408947
 20
910.052113
 30
0.0
 40
5.0
  0
CIRCLE
  5
27E
100
AcDbEntity
  8
2
  6
Continuous
 62
   216
100
AcDbCircle
 10
3156.408947
 20
903.052113
 30
0.0
 40
4.0
  0
CIRCLE
  5
27F
100
AcDbEntity
  8
2
  6
Continuous
 62
   216
100
AcDbCircle
 10
3148.408947
 20
858.052113
 30
0.0
 40
3.0
  0
CIRCLE
  5
280
100
AcDbEntity
  8
2
  6
Continuous
 62
   216
100
AcDbCircle
 10
3200.408947
 20
934.052113
 30
0.0
 40
9.0
  0
CIRCLE
  5
281
100
AcDbEntity
  8
2
  6
Continuous
 62
   216
100
AcDbCircle
 10
3178.408947
 20
922.052113
 30
0.0
 40
4.0
  0
CIRCLE
  5
282
100
AcDbEntity
  8
2
  6
Continuous
 62
   216
100
AcDbCircle
 10
3180.408947
 20
886.052113
 30
0.0
 40
7.0
  0
CIRCLE
  5
283
100
AcDbEntity
  8
2
  6
Continuous
 62
   216
100
AcDbCircle
 10
3199.408947
 20
904.052113
 30
0.0
 40
6.0
  0
CIRCLE
  5
284
100
AcDbEntity
  8
2
  6
Continuous
 62
   216
100
AcDbCircle
 10
3196.408947
 20
866.052113
 30
0.0
 40
5.0
  0
CIRCLE
  5
285
100
AcDbEntity
  8
2
  6
Continuous
 62
   216
100
AcDbCircle
 10
3243.408947
 20
932.052113
 30
0.0
 40
3.0
  0
CIRCLE
  5
286
100
AcDbEntity
  8
2
  6
Continuous
 62
   216
100
AcDbCircle
 10
3234.408947
 20
904.052113
 30
0.0
 40
9.0
  0
CIRCLE
  5
287
100
AcDbEntity
  8
2
  6
Continuous
 62
   216
100
AcDbCircle
 10
3221.408947
 20
884.052113
 30
0.0
 40
5.0
  0
CIRCLE
  5
288
100
AcDbEntity
  8
2
  6
Continuous
 62
   216
100
AcDbCircle
 10
3223.408947
 20
866.052113
 30
0.0
 40
4.0
  0
CIRCLE
  5
289
100
AcDbEntity
  8
2
  6
Continuous
 62
   216
100
AcDbCircle
 10
3250.408947
 20
863.052113
 30
0.0
 40
6.0
  0
CIRCLE
  5
28A
100
AcDbEntity
  8
2
  6
Continuous
 62
   216
100
AcDbCircle
 10
3271.408947
 20
920.052113
 30
0.0
 40
5.0
  0
CIRCLE
  5
28B
100
AcDbEntity
  8
2
  6
Continuous
 62
   216
100
AcDbCircle
 10
3271.408947
 20
886.052113
 30
0.0
 40
5.0
  0
CIRCLE
  5
28C
100
AcDbEntity
  8
2
  6
Continuous
 62
   216
100
AcDbCircle
 10
3296.408947
 20
933.052113
 30
0.0
 40
7.0
  0
CIRCLE
  5
28D
100
AcDbEntity
  8
2
  6
Continuous
 62
   216
100
AcDbCircle
 10
3286.408947
 20
910.052113
 30
0.0
 40
5.0
  0
CIRCLE
  5
28E
100
AcDbEntity
  8
2
  6
Continuous
 62
   216
100
AcDbCircle
 10
3306.408947
 20
903.052113
 30
0.0
 40
4.0
  0
CIRCLE
  5
28F
100
AcDbEntity
  8
2
  6
Continuous
 62
   216
100
AcDbCircle
 10
3298.408947
 20
858.052113
 30
0.0
 40
3.0
  0
CIRCLE
  5
290
100
AcDbEntity
  8
2
  6
Continuous
 62
   216
100
AcDbCircle
 10
3350.408947
 20
934.052113
 30
0.0
 40
9.0
  0
CIRCLE
  5
291
100
AcDbEntity
  8
2
  6
Continuous
 62
   216
100
AcDbCircle
 10
3328.408947
 20
922.052113
 30
0.0
 40
4.0
  0
CIRCLE
  5
292
100
AcDbEntity
  8
2
  6
Continuous
 62
   216
100
AcDbCircle
 10
3330.408947
 20
886.052113
 30
0.0
 40
7.0
  0
CIRCLE
  5
293
100
AcDbEntity
  8
2
  6
Continuous
 62
   216
100
AcDbCircle
 10
3349.408947
 20
904.052113
 30
0.0
 40
6.0
  0
CIRCLE
  5
294
100
AcDbEntity
  8
2
  6
Continuous
 62
   216
100
AcDbCircle
 10
3346.408947
 20
866.052113
 30
0.0
 40
5.0
  0
CIRCLE
  5
295
100
AcDbEntity
  8
2
  6
Continuous
 62
   216
100
AcDbCircle
 10
3393.408947
 20
932.052113
 30
0.0
 40
3.0
  0
CIRCLE
  5
296
100
AcDbEntity
  8
2
  6
Continuous
 62
   216
100
AcDbCircle
 10
3384.408947
 20
904.052113
 30
0.0
 40
9.0
  0
CIRCLE
  5
297
100
AcDbEntity
  8
2
  6
Continuous
 62
   216
100
AcDbCircle
 10
3371.408947
 20
884.052113
 30
0.0
 40
5.0
  0
CIRCLE
  5
298
100
AcDbEntity
  8
2
  6
Continuous
 62
   216
100
AcDbCircle
 10
3373.408947
 20
866.052113
 30
0.0
 40
4.0
  0
ARC
  5
299
100
AcDbEntity
  8
2
  6
Continuous
 62
   216
100
AcDbCircle
 10
3400.408947
 20
863.052113
 30
0.0
 40
6.0
100
AcDbArc
 50
65.091001
 51
-65.091001
  0
LINE
  5
29A
100
AcDbEntity
  8
2
  6
Continuous
 62
   216
100
AcDbLine
 10
2569.408947
 20
848.052113
 30
0.0
 11
3402.936017
 21
848.052113
 31
0.0
  0
LINE
  5
29B
100
AcDbEntity
  8
2
  6
Continuous
 62
   216
100
AcDbLine
 10
2569.408947
 20
948.052113
 30
0.0
 11
3402.936017
 21
948.052113
 31
0.0
  0
ENDBLK
  5
29C
100
AcDbEntity
  8
0
100
AcDbBlockEnd
  0
BLOCK
  5
29F
100
AcDbEntity
  8
1
  6
Continuous
 62
     7
100
AcDbBlockBegin
  2
*D21
 70
     0
 10
0.0
 20
0.0
 30
0.0
  3
*D21
  1

  0
LINE
  5
2A0
100
AcDbEntity
  8
1
  6
Continuous
 62
     7
100
AcDbLine
 10
3279.84129
 20
698.586568
 30
0.0
 11
2679.84129
 21
698.586568
 31
0.0
  0
LINE
  5
2A1
100
AcDbEntity
  8
1
  6
Continuous
 62
     7
100
AcDbLine
 10
3279.84129
 20
688.586568
 30
0.0
 11
3279.84129
 21
938.052113
 31
0.0
  0
LINE
  5
2A2
100
AcDbEntity
  8
1
  6
Continuous
 62
     7
100
AcDbLine
 10
2679.84129
 20
688.586568
 30
0.0
 11
2679.84129
 21
938.052113
 31
0.0
  0
LINE
  5
2A3
100
AcDbEntity
  8
1
  6
Continuous
 62
     7
100
AcDbLine
 10
3279.84129
 20
698.586568
 30
0.0
 11
3231.544999
 21
685.645616
 31
0.0
  0
LINE
  5
2A4
100
AcDbEntity
  8
1
  6
Continuous
 62
     7
100
AcDbLine
 10
3279.84129
 20
698.586568
 30
0.0
 11
3231.544999
 21
711.52752
 31
0.0
  0
LINE
  5
2A5
100
AcDbEntity
  8
1
  6
Continuous
 62
     7
100
AcDbLine
 10
2679.84129
 20
698.586568
 30
0.0
 11
2728.137581
 21
711.52752
 31
0.0
  0
LINE
  5
2A6
100
AcDbEntity
  8
1
  6
Continuous
 62
     7
100
AcDbLine
 10
2679.84129
 20
698.586568
 30
0.0
 11
2728.137581
 21
685.645616
 31
0.0
  0
TEXT
  5
2A7
100
AcDbEntity
  8
1
  6
Continuous
 62
     7
100
AcDbText
 10
2719.84129
 20
698.586568
 30
0.0
 40
80.0
  1
基礎断面□600
 41
0.722222
 11
2719.84129
 21
698.586568
 31
0.0
100
AcDbText
 73
     1
  0
ENDBLK
  5
2A8
100
AcDbEntity
  8
1
  6
Continuous
 62
     7
100
AcDbBlockEnd
  0
BLOCK
  5
2AB
100
AcDbEntity
  8
1
  6
Continuous
 62
     7
100
AcDbBlockBegin
  2
*D22
 70
     0
 10
0.0
 20
0.0
 30
0.0
  3
*D22
  1

  0
LINE
  5
2AC
100
AcDbEntity
  8
1
  6
Continuous
 62
     7
100
AcDbLine
 10
2540.814899
 20
1668.052113
 30
0.0
 11
2540.814899
 21
1048.052113
 31
0.0
  0
LINE
  5
2AD
100
AcDbEntity
  8
1
  6
Continuous
 62
     7
100
AcDbLine
 10
2530.814899
 20
1668.052113
 30
0.0
 11
2669.84129
 21
1668.052113
 31
0.0
  0
LINE
  5
2AE
100
AcDbEntity
  8
1
  6
Continuous
 62
     7
100
AcDbLine
 10
2530.814899
 20
1048.052113
 30
0.0
 11
2907.34129
 21
1048.052113
 31
0.0
  0
LINE
  5
2AF
100
AcDbEntity
  8
1
  6
Continuous
 62
     7
100
AcDbLine
 10
2540.814899
 20
1668.052113
 30
0.0
 11
2553.755851
 21
1619.755821
 31
0.0
  0
LINE
  5
2B0
100
AcDbEntity
  8
1
  6
Continuous
 62
     7
100
AcDbLine
 10
2540.814899
 20
1668.052113
 30
0.0
 11
2527.873947
 21
1619.755821
 31
0.0
  0
LINE
  5
2B1
100
AcDbEntity
  8
1
  6
Continuous
 62
     7
100
AcDbLine
 10
2540.814899
 20
1048.052113
 30
0.0
 11
2527.873947
 21
1096.348404
 31
0.0
  0
LINE
  5
2B2
100
AcDbEntity
  8
1
  6
Continuous
 62
     7
100
AcDbLine
 10
2540.814899
 20
1048.052113
 30
0.0
 11
2553.755851
 21
1096.348404
 31
0.0
  0
TEXT
  5
2B3
100
AcDbEntity
  8
1
  6
Continuous
 62
     7
100
AcDbText
 10
2540.814899
 20
1058.052113
 30
0.0
 40
80.0
  1
支柱埋込深さ620
 50
90.0
 41
0.735294
 11
2540.814899
 21
1058.052113
 31
0.0
100
AcDbText
 73
     1
  0
ENDBLK
  5
2B4
100
AcDbEntity
  8
1
  6
Continuous
 62
     7
100
AcDbBlockEnd
  0
BLOCK
  5
2D1
100
AcDbEntity
  8
2
  6
Continuous
 62
   216
100
AcDbBlockBegin
  2
*G23
 70
     0
 10
0.0
 20
0.0
 30
0.0
  3
*G23
  1

  0
CIRCLE
  5
2D2
100
AcDbEntity
  8
2
  6
Continuous
 62
   216
100
AcDbCircle
 10
4900.084114
 20
934.052113
 30
0.0
 40
9.0
  0
CIRCLE
  5
2D3
100
AcDbEntity
  8
2
  6
Continuous
 62
   216
100
AcDbCircle
 10
4878.084114
 20
922.052113
 30
0.0
 40
4.0
  0
CIRCLE
  5
2D4
100
AcDbEntity
  8
2
  6
Continuous
 62
   216
100
AcDbCircle
 10
4880.084114
 20
886.052113
 30
0.0
 40
7.0
  0
CIRCLE
  5
2D5
100
AcDbEntity
  8
2
  6
Continuous
 62
   216
100
AcDbCircle
 10
4899.084114
 20
904.052113
 30
0.0
 40
6.0
  0
CIRCLE
  5
2D6
100
AcDbEntity
  8
2
  6
Continuous
 62
   216
100
AcDbCircle
 10
4896.084114
 20
866.052113
 30
0.0
 40
5.0
  0
CIRCLE
  5
2D7
100
AcDbEntity
  8
2
  6
Continuous
 62
   216
100
AcDbCircle
 10
4943.084114
 20
932.052113
 30
0.0
 40
3.0
  0
CIRCLE
  5
2D8
100
AcDbEntity
  8
2
  6
Continuous
 62
   216
100
AcDbCircle
 10
4934.084114
 20
904.052113
 30
0.0
 40
9.0
  0
CIRCLE
  5
2D9
100
AcDbEntity
  8
2
  6
Continuous
 62
   216
100
AcDbCircle
 10
4921.084114
 20
884.052113
 30
0.0
 40
5.0
  0
CIRCLE
  5
2DA
100
AcDbEntity
  8
2
  6
Continuous
 62
   216
100
AcDbCircle
 10
4923.084114
 20
866.052113
 30
0.0
 40
4.0
  0
CIRCLE
  5
2DB
100
AcDbEntity
  8
2
  6
Continuous
 62
   216
100
AcDbCircle
 10
4950.084114
 20
863.052113
 30
0.0
 40
6.0
  0
CIRCLE
  5
2DC
100
AcDbEntity
  8
2
  6
Continuous
 62
   216
100
AcDbCircle
 10
4971.084114
 20
920.052113
 30
0.0
 40
5.0
  0
CIRCLE
  5
2DD
100
AcDbEntity
  8
2
  6
Continuous
 62
   216
100
AcDbCircle
 10
4971.084114
 20
886.052113
 30
0.0
 40
5.0
  0
CIRCLE
  5
2DE
100
AcDbEntity
  8
2
  6
Continuous
 62
   216
100
AcDbCircle
 10
4996.084114
 20
933.052113
 30
0.0
 40
7.0
  0
CIRCLE
  5
2DF
100
AcDbEntity
  8
2
  6
Continuous
 62
   216
100
AcDbCircle
 10
4986.084114
 20
910.052113
 30
0.0
 40
5.0
  0
CIRCLE
  5
2E0
100
AcDbEntity
  8
2
  6
Continuous
 62
   216
100
AcDbCircle
 10
5006.084114
 20
903.052113
 30
0.0
 40
4.0
  0
CIRCLE
  5
2E1
100
AcDbEntity
  8
2
  6
Continuous
 62
   216
100
AcDbCircle
 10
4998.084114
 20
858.052113
 30
0.0
 40
3.0
  0
CIRCLE
  5
2E2
100
AcDbEntity
  8
2
  6
Continuous
 62
   216
100
AcDbCircle
 10
5050.084114
 20
934.052113
 30
0.0
 40
9.0
  0
CIRCLE
  5
2E3
100
AcDbEntity
  8
2
  6
Continuous
 62
   216
100
AcDbCircle
 10
5028.084114
 20
922.052113
 30
0.0
 40
4.0
  0
CIRCLE
  5
2E4
100
AcDbEntity
  8
2
  6
Continuous
 62
   216
100
AcDbCircle
 10
5030.084114
 20
886.052113
 30
0.0
 40
7.0
  0
CIRCLE
  5
2E5
100
AcDbEntity
  8
2
  6
Continuous
 62
   216
100
AcDbCircle
 10
5049.084114
 20
904.052113
 30
0.0
 40
6.0
  0
CIRCLE
  5
2E6
100
AcDbEntity
  8
2
  6
Continuous
 62
   216
100
AcDbCircle
 10
5046.084114
 20
866.052113
 30
0.0
 40
5.0
  0
CIRCLE
  5
2E7
100
AcDbEntity
  8
2
  6
Continuous
 62
   216
100
AcDbCircle
 10
5093.084114
 20
932.052113
 30
0.0
 40
3.0
  0
CIRCLE
  5
2E8
100
AcDbEntity
  8
2
  6
Continuous
 62
   216
100
AcDbCircle
 10
5084.084114
 20
904.052113
 30
0.0
 40
9.0
  0
CIRCLE
  5
2E9
100
AcDbEntity
  8
2
  6
Continuous
 62
   216
100
AcDbCircle
 10
5071.084114
 20
884.052113
 30
0.0
 40
5.0
  0
CIRCLE
  5
2EA
100
AcDbEntity
  8
2
  6
Continuous
 62
   216
100
AcDbCircle
 10
5073.084114
 20
866.052113
 30
0.0
 40
4.0
  0
CIRCLE
  5
2EB
100
AcDbEntity
  8
2
  6
Continuous
 62
   216
100
AcDbCircle
 10
5100.084114
 20
863.052113
 30
0.0
 40
6.0
  0
CIRCLE
  5
2EC
100
AcDbEntity
  8
2
  6
Continuous
 62
   216
100
AcDbCircle
 10
5121.084114
 20
920.052113
 30
0.0
 40
5.0
  0
CIRCLE
  5
2ED
100
AcDbEntity
  8
2
  6
Continuous
 62
   216
100
AcDbCircle
 10
5121.084114
 20
886.052113
 30
0.0
 40
5.0
  0
CIRCLE
  5
2EE
100
AcDbEntity
  8
2
  6
Continuous
 62
   216
100
AcDbCircle
 10
5146.084114
 20
933.052113
 30
0.0
 40
7.0
  0
CIRCLE
  5
2EF
100
AcDbEntity
  8
2
  6
Continuous
 62
   216
100
AcDbCircle
 10
5136.084114
 20
910.052113
 30
0.0
 40
5.0
  0
CIRCLE
  5
2F0
100
AcDbEntity
  8
2
  6
Continuous
 62
   216
100
AcDbCircle
 10
5156.084114
 20
903.052113
 30
0.0
 40
4.0
  0
CIRCLE
  5
2F1
100
AcDbEntity
  8
2
  6
Continuous
 62
   216
100
AcDbCircle
 10
5148.084114
 20
858.052113
 30
0.0
 40
3.0
  0
CIRCLE
  5
2F2
100
AcDbEntity
  8
2
  6
Continuous
 62
   216
100
AcDbCircle
 10
5200.084114
 20
934.052113
 30
0.0
 40
9.0
  0
CIRCLE
  5
2F3
100
AcDbEntity
  8
2
  6
Continuous
 62
   216
100
AcDbCircle
 10
5178.084114
 20
922.052113
 30
0.0
 40
4.0
  0
CIRCLE
  5
2F4
100
AcDbEntity
  8
2
  6
Continuous
 62
   216
100
AcDbCircle
 10
5180.084114
 20
886.052113
 30
0.0
 40
7.0
  0
CIRCLE
  5
2F5
100
AcDbEntity
  8
2
  6
Continuous
 62
   216
100
AcDbCircle
 10
5199.084114
 20
904.052113
 30
0.0
 40
6.0
  0
CIRCLE
  5
2F6
100
AcDbEntity
  8
2
  6
Continuous
 62
   216
100
AcDbCircle
 10
5196.084114
 20
866.052113
 30
0.0
 40
5.0
  0
CIRCLE
  5
2F7
100
AcDbEntity
  8
2
  6
Continuous
 62
   216
100
AcDbCircle
 10
5243.084114
 20
932.052113
 30
0.0
 40
3.0
  0
CIRCLE
  5
2F8
100
AcDbEntity
  8
2
  6
Continuous
 62
   216
100
AcDbCircle
 10
5234.084114
 20
904.052113
 30
0.0
 40
9.0
  0
CIRCLE
  5
2F9
100
AcDbEntity
  8
2
  6
Continuous
 62
   216
100
AcDbCircle
 10
5221.084114
 20
884.052113
 30
0.0
 40
5.0
  0
CIRCLE
  5
2FA
100
AcDbEntity
  8
2
  6
Continuous
 62
   216
100
AcDbCircle
 10
5223.084114
 20
866.052113
 30
0.0
 40
4.0
  0
CIRCLE
  5
2FB
100
AcDbEntity
  8
2
  6
Continuous
 62
   216
100
AcDbCircle
 10
5250.084114
 20
863.052113
 30
0.0
 40
6.0
  0
CIRCLE
  5
2FC
100
AcDbEntity
  8
2
  6
Continuous
 62
   216
100
AcDbCircle
 10
5271.084114
 20
920.052113
 30
0.0
 40
5.0
  0
CIRCLE
  5
2FD
100
AcDbEntity
  8
2
  6
Continuous
 62
   216
100
AcDbCircle
 10
5271.084114
 20
886.052113
 30
0.0
 40
5.0
  0
CIRCLE
  5
2FE
100
AcDbEntity
  8
2
  6
Continuous
 62
   216
100
AcDbCircle
 10
5296.084114
 20
933.052113
 30
0.0
 40
7.0
  0
CIRCLE
  5
2FF
100
AcDbEntity
  8
2
  6
Continuous
 62
   216
100
AcDbCircle
 10
5286.084114
 20
910.052113
 30
0.0
 40
5.0
  0
CIRCLE
  5
300
100
AcDbEntity
  8
2
  6
Continuous
 62
   216
100
AcDbCircle
 10
5306.084114
 20
903.052113
 30
0.0
 40
4.0
  0
CIRCLE
  5
301
100
AcDbEntity
  8
2
  6
Continuous
 62
   216
100
AcDbCircle
 10
5298.084114
 20
858.052113
 30
0.0
 40
3.0
  0
CIRCLE
  5
302
100
AcDbEntity
  8
2
  6
Continuous
 62
   216
100
AcDbCircle
 10
5350.084114
 20
934.052113
 30
0.0
 40
9.0
  0
CIRCLE
  5
303
100
AcDbEntity
  8
2
  6
Continuous
 62
   216
100
AcDbCircle
 10
5328.084114
 20
922.052113
 30
0.0
 40
4.0
  0
CIRCLE
  5
304
100
AcDbEntity
  8
2
  6
Continuous
 62
   216
100
AcDbCircle
 10
5330.084114
 20
886.052113
 30
0.0
 40
7.0
  0
CIRCLE
  5
305
100
AcDbEntity
  8
2
  6
Continuous
 62
   216
100
AcDbCircle
 10
5349.084114
 20
904.052113
 30
0.0
 40
6.0
  0
CIRCLE
  5
306
100
AcDbEntity
  8
2
  6
Continuous
 62
   216
100
AcDbCircle
 10
5346.084114
 20
866.052113
 30
0.0
 40
5.0
  0
CIRCLE
  5
307
100
AcDbEntity
  8
2
  6
Continuous
 62
   216
100
AcDbCircle
 10
5393.084114
 20
932.052113
 30
0.0
 40
3.0
  0
CIRCLE
  5
308
100
AcDbEntity
  8
2
  6
Continuous
 62
   216
100
AcDbCircle
 10
5384.084114
 20
904.052113
 30
0.0
 40
9.0
  0
CIRCLE
  5
309
100
AcDbEntity
  8
2
  6
Continuous
 62
   216
100
AcDbCircle
 10
5371.084114
 20
884.052113
 30
0.0
 40
5.0
  0
CIRCLE
  5
30A
100
AcDbEntity
  8
2
  6
Continuous
 62
   216
100
AcDbCircle
 10
5373.084114
 20
866.052113
 30
0.0
 40
4.0
  0
CIRCLE
  5
30B
100
AcDbEntity
  8
2
  6
Continuous
 62
   216
100
AcDbCircle
 10
5400.084114
 20
863.052113
 30
0.0
 40
6.0
  0
CIRCLE
  5
30C
100
AcDbEntity
  8
2
  6
Continuous
 62
   216
100
AcDbCircle
 10
5421.084114
 20
920.052113
 30
0.0
 40
5.0
  0
CIRCLE
  5
30D
100
AcDbEntity
  8
2
  6
Continuous
 62
   216
100
AcDbCircle
 10
5421.084114
 20
886.052113
 30
0.0
 40
5.0
  0
CIRCLE
  5
30E
100
AcDbEntity
  8
2
  6
Continuous
 62
   216
100
AcDbCircle
 10
5446.084114
 20
933.052113
 30
0.0
 40
7.0
  0
CIRCLE
  5
30F
100
AcDbEntity
  8
2
  6
Continuous
 62
   216
100
AcDbCircle
 10
5436.084114
 20
910.052113
 30
0.0
 40
5.0
  0
CIRCLE
  5
310
100
AcDbEntity
  8
2
  6
Continuous
 62
   216
100
AcDbCircle
 10
5456.084114
 20
903.052113
 30
0.0
 40
4.0
  0
CIRCLE
  5
311
100
AcDbEntity
  8
2
  6
Continuous
 62
   216
100
AcDbCircle
 10
5448.084114
 20
858.052113
 30
0.0
 40
3.0
  0
CIRCLE
  5
312
100
AcDbEntity
  8
2
  6
Continuous
 62
   216
100
AcDbCircle
 10
5500.084114
 20
934.052113
 30
0.0
 40
9.0
  0
CIRCLE
  5
313
100
AcDbEntity
  8
2
  6
Continuous
 62
   216
100
AcDbCircle
 10
5478.084114
 20
922.052113
 30
0.0
 40
4.0
  0
CIRCLE
  5
314
100
AcDbEntity
  8
2
  6
Continuous
 62
   216
100
AcDbCircle
 10
5480.084114
 20
886.052113
 30
0.0
 40
7.0
  0
CIRCLE
  5
315
100
AcDbEntity
  8
2
  6
Continuous
 62
   216
100
AcDbCircle
 10
5499.084114
 20
904.052113
 30
0.0
 40
6.0
  0
CIRCLE
  5
316
100
AcDbEntity
  8
2
  6
Continuous
 62
   216
100
AcDbCircle
 10
5496.084114
 20
866.052113
 30
0.0
 40
5.0
  0
CIRCLE
  5
317
100
AcDbEntity
  8
2
  6
Continuous
 62
   216
100
AcDbCircle
 10
5543.084114
 20
932.052113
 30
0.0
 40
3.0
  0
CIRCLE
  5
318
100
AcDbEntity
  8
2
  6
Continuous
 62
   216
100
AcDbCircle
 10
5534.084114
 20
904.052113
 30
0.0
 40
9.0
  0
CIRCLE
  5
319
100
AcDbEntity
  8
2
  6
Continuous
 62
   216
100
AcDbCircle
 10
5521.084114
 20
884.052113
 30
0.0
 40
5.0
  0
CIRCLE
  5
31A
100
AcDbEntity
  8
2
  6
Continuous
 62
   216
100
AcDbCircle
 10
5523.084114
 20
866.052113
 30
0.0
 40
4.0
  0
CIRCLE
  5
31B
100
AcDbEntity
  8
2
  6
Continuous
 62
   216
100
AcDbCircle
 10
5550.084114
 20
863.052113
 30
0.0
 40
6.0
  0
CIRCLE
  5
31C
100
AcDbEntity
  8
2
  6
Continuous
 62
   216
100
AcDbCircle
 10
5571.084114
 20
920.052113
 30
0.0
 40
5.0
  0
CIRCLE
  5
31D
100
AcDbEntity
  8
2
  6
Continuous
 62
   216
100
AcDbCircle
 10
5571.084114
 20
886.052113
 30
0.0
 40
5.0
  0
CIRCLE
  5
31E
100
AcDbEntity
  8
2
  6
Continuous
 62
   216
100
AcDbCircle
 10
5596.084114
 20
933.052113
 30
0.0
 40
7.0
  0
CIRCLE
  5
31F
100
AcDbEntity
  8
2
  6
Continuous
 62
   216
100
AcDbCircle
 10
5586.084114
 20
910.052113
 30
0.0
 40
5.0
  0
CIRCLE
  5
320
100
AcDbEntity
  8
2
  6
Continuous
 62
   216
100
AcDbCircle
 10
5606.084114
 20
903.052113
 30
0.0
 40
4.0
  0
CIRCLE
  5
321
100
AcDbEntity
  8
2
  6
Continuous
 62
   216
100
AcDbCircle
 10
5598.084114
 20
858.052113
 30
0.0
 40
3.0
  0
CIRCLE
  5
322
100
AcDbEntity
  8
2
  6
Continuous
 62
   216
100
AcDbCircle
 10
5650.084114
 20
934.052113
 30
0.0
 40
9.0
  0
CIRCLE
  5
323
100
AcDbEntity
  8
2
  6
Continuous
 62
   216
100
AcDbCircle
 10
5628.084114
 20
922.052113
 30
0.0
 40
4.0
  0
CIRCLE
  5
324
100
AcDbEntity
  8
2
  6
Continuous
 62
   216
100
AcDbCircle
 10
5630.084114
 20
886.052113
 30
0.0
 40
7.0
  0
CIRCLE
  5
325
100
AcDbEntity
  8
2
  6
Continuous
 62
   216
100
AcDbCircle
 10
5649.084114
 20
904.052113
 30
0.0
 40
6.0
  0
CIRCLE
  5
326
100
AcDbEntity
  8
2
  6
Continuous
 62
   216
100
AcDbCircle
 10
5646.084114
 20
866.052113
 30
0.0
 40
5.0
  0
CIRCLE
  5
327
100
AcDbEntity
  8
2
  6
Continuous
 62
   216
100
AcDbCircle
 10
5693.084114
 20
932.052113
 30
0.0
 40
3.0
  0
CIRCLE
  5
328
100
AcDbEntity
  8
2
  6
Continuous
 62
   216
100
AcDbCircle
 10
5684.084114
 20
904.052113
 30
0.0
 40
9.0
  0
CIRCLE
  5
329
100
AcDbEntity
  8
2
  6
Continuous
 62
   216
100
AcDbCircle
 10
5671.084114
 20
884.052113
 30
0.0
 40
5.0
  0
CIRCLE
  5
32A
100
AcDbEntity
  8
2
  6
Continuous
 62
   216
100
AcDbCircle
 10
5673.084114
 20
866.052113
 30
0.0
 40
4.0
  0
CIRCLE
  5
32B
100
AcDbEntity
  8
2
  6
Continuous
 62
   216
100
AcDbCircle
 10
5700.084114
 20
863.052113
 30
0.0
 40
6.0
  0
ARC
  5
32C
100
AcDbEntity
  8
2
  6
Continuous
 62
   216
100
AcDbCircle
 10
5721.084114
 20
920.052113
 30
0.0
 40
5.0
100
AcDbArc
 50
154.242398
 51
-154.242398
  0
ARC
  5
32D
100
AcDbEntity
  8
2
  6
Continuous
 62
   216
100
AcDbCircle
 10
5721.084114
 20
886.052113
 30
0.0
 40
5.0
100
AcDbArc
 50
154.242398
 51
-154.242398
  0
LINE
  5
32E
100
AcDbEntity
  8
2
  6
Continuous
 62
   216
100
AcDbLine
 10
4869.084114
 20
848.052113
 30
0.0
 11
5716.580911
 21
848.052113
 31
0.0
  0
LINE
  5
32F
100
AcDbEntity
  8
2
  6
Continuous
 62
   216
100
AcDbLine
 10
4869.084114
 20
948.052113
 30
0.0
 11
5716.580911
 21
948.052113
 31
0.0
  0
ENDBLK
  5
330
100
AcDbEntity
  8
0
100
AcDbBlockEnd
  0
BLOCK
  5
349
100
AcDbEntity
  8
1
  6
Continuous
 62
     7
100
AcDbBlockBegin
  2
*D24
 70
     0
 10
0.0
 20
0.0
 30
0.0
  3
*D24
  1

  0
LINE
  5
34A
100
AcDbEntity
  8
1
  6
Continuous
 62
     7
100
AcDbLine
 10
3012.34129
 20
2863.093088
 30
0.0
 11
5267.34129
 21
2863.093088
 31
0.0
  0
LINE
  5
34B
100
AcDbEntity
  8
1
  6
Continuous
 62
     7
100
AcDbLine
 10
3012.34129
 20
2853.093088
 30
0.0
 11
3012.34129
 21
2891.746542
 31
0.0
  0
LINE
  5
34C
100
AcDbEntity
  8
1
  6
Continuous
 62
     7
100
AcDbLine
 10
3012.34129
 20
2863.093088
 30
0.0
 11
3060.637581
 21
2876.034041
 31
0.0
  0
LINE
  5
34D
100
AcDbEntity
  8
1
  6
Continuous
 62
     7
100
AcDbLine
 10
3012.34129
 20
2863.093088
 30
0.0
 11
3060.637581
 21
2850.152136
 31
0.0
  0
LINE
  5
34E
100
AcDbEntity
  8
1
  6
Continuous
 62
     7
100
AcDbLine
 10
5267.34129
 20
2863.093088
 30
0.0
 11
5219.044999
 21
2850.152136
 31
0.0
  0
LINE
  5
34F
100
AcDbEntity
  8
1
  6
Continuous
 62
     7
100
AcDbLine
 10
5267.34129
 20
2863.093088
 30
0.0
 11
5219.044999
 21
2876.034041
 31
0.0
  0
TEXT
  5
350
100
AcDbEntity
  8
1
  6
Continuous
 62
     7
100
AcDbText
 10
4099.84129
 20
2863.093088
 30
0.0
 40
80.0
  1
Ｗ
 41
0.833333
 11
4099.84129
 21
2863.093088
 31
0.0
100
AcDbText
 73
     1
  0
ENDBLK
  5
351
100
AcDbEntity
  8
1
  6
Continuous
 62
     7
100
AcDbBlockEnd
  0
BLOCK
  5
356
100
AcDbEntity
  8
1
  6
Continuous
 62
     7
100
AcDbBlockBegin
  2
*D25
 70
     0
 10
0.0
 20
0.0
 30
0.0
  3
*D25
  1

  0
LINE
  5
357
100
AcDbEntity
  8
1
  6
Continuous
 62
     7
100
AcDbLine
 10
2527.294422
 20
1902.052113
 30
0.0
 11
3159.84129
 21
1902.052113
 31
0.0
  0
LINE
  5
358
100
AcDbEntity
  8
1
  6
Continuous
 62
     7
100
AcDbLine
 10
2879.84129
 20
1912.052113
 30
0.0
 11
2879.84129
 21
1678.052113
 31
0.0
  0
LINE
  5
359
100
AcDbEntity
  8
1
  6
Continuous
 62
     7
100
AcDbLine
 10
3079.84129
 20
1912.052113
 30
0.0
 11
3079.84129
 21
1678.052113
 31
0.0
  0
LINE
  5
35A
100
AcDbEntity
  8
1
  6
Continuous
 62
     7
100
AcDbLine
 10
2879.84129
 20
1902.052113
 30
0.0
 11
2831.544999
 21
1889.11116
 31
0.0
  0
LINE
  5
35B
100
AcDbEntity
  8
1
  6
Continuous
 62
     7
100
AcDbLine
 10
2879.84129
 20
1902.052113
 30
0.0
 11
2831.544999
 21
1914.993065
 31
0.0
  0
LINE
  5
35C
100
AcDbEntity
  8
1
  6
Continuous
 62
     7
100
AcDbLine
 10
3079.84129
 20
1902.052113
 30
0.0
 11
3128.137581
 21
1914.993065
 31
0.0
  0
LINE
  5
35D
100
AcDbEntity
  8
1
  6
Continuous
 62
     7
100
AcDbLine
 10
3079.84129
 20
1902.052113
 30
0.0
 11
3128.137581
 21
1889.11116
 31
0.0
  0
TEXT
  5
35E
100
AcDbEntity
  8
1
  6
Continuous
 62
     7
100
AcDbText
 10
2547.294422
 20
1902.052113
 30
0.0
 40
80.0
  1
%%c200～
 41
0.673077
 11
2547.294422
 21
1902.052113
 31
0.0
100
AcDbText
 73
     1
  0
ENDBLK
  5
35F
100
AcDbEntity
  8
1
  6
Continuous
 62
     7
100
AcDbBlockEnd
  0
BLOCK
  5
366
100
AcDbEntity
  8
1
  6
Continuous
 62
     7
100
AcDbBlockBegin
  2
*G26
 70
     0
 10
0.0
 20
0.0
 30
0.0
  3
*G26
  1

  0
LINE
  5
367
100
AcDbEntity
  8
1
  6
Continuous
 62
     7
100
AcDbLine
 10
3060.729425
 20
1817.150432
 30
0.0
 11
3081.434948
 21
1739.876366
 31
0.0
  0
LINE
  5
368
100
AcDbEntity
  8
1
  6
Continuous
 62
     7
100
AcDbLine
 10
3060.729425
 20
1817.150432
 30
0.0
 11
3040.023901
 21
1739.876366
 31
0.0
  0
POLYLINE
  5
369
100
AcDbEntity
  8
1
  6
Continuous
 62
     7
100
AcDb2dPolyline
 66
     1
 10
0.0
 20
0.0
 30
0.0
  0
VERTEX
  5
36A
100
AcDbEntity
  8
1
  6
Continuous
 62
     7
100
AcDbVertex
100
AcDb2dVertex
 10
3060.729425
 20
1817.150432
 30
0.0
  0
VERTEX
  5
36B
100
AcDbEntity
  8
1
  6
Continuous
 62
     7
100
AcDbVertex
100
AcDb2dVertex
 10
3060.729425
 20
1333.232657
 30
0.0
  0
SEQEND
  5
36C
100
AcDbEntity
  8
1
  6
Continuous
 62
     7
  0
LINE
  5
36D
100
AcDbEntity
  8
1
  6
Continuous
 62
     7
100
AcDbLine
 10
3060.729425
 20
1333.232657
 30
0.0
 11
3060.729425
 21
1285.465101
 31
0.0
  0
LINE
  5
36E
100
AcDbEntity
  8
1
  6
Continuous
 62
     7
100
AcDbLine
 10
3120.729425
 20
1225.465101
 30
0.0
 11
3193.366417
 21
1225.465101
 31
0.0
  0
ARC
  5
36F
100
AcDbEntity
  8
1
  6
Continuous
 62
     7
100
AcDbCircle
 10
3120.729425
 20
1285.465101
 30
0.0
 40
60.0
100
AcDbArc
 50
180.0
 51
-90.0
  0
ENDBLK
  5
370
100
AcDbEntity
  8
0
100
AcDbBlockEnd
  0
BLOCK
  5
373
100
AcDbEntity
  8
1
  6
Continuous
 62
     7
100
AcDbBlockBegin
  2
*G27
 70
     0
 10
0.0
 20
0.0
 30
0.0
  3
*G27
  1

  0
LINE
  5
374
100
AcDbEntity
  8
1
  6
Continuous
 62
     7
100
AcDbLine
 10
5218.953156
 20
1817.150432
 30
0.0
 11
5239.658679
 21
1739.876366
 31
0.0
  0
LINE
  5
375
100
AcDbEntity
  8
1
  6
Continuous
 62
     7
100
AcDbLine
 10
5218.953156
 20
1817.150432
 30
0.0
 11
5198.247632
 21
1739.876366
 31
0.0
  0
POLYLINE
  5
376
100
AcDbEntity
  8
1
  6
Continuous
 62
     7
100
AcDb2dPolyline
 66
     1
 10
0.0
 20
0.0
 30
0.0
  0
VERTEX
  5
377
100
AcDbEntity
  8
1
  6
Continuous
 62
     7
100
AcDbVertex
100
AcDb2dVertex
 10
5218.953156
 20
1817.150432
 30
0.0
  0
VERTEX
  5
378
100
AcDbEntity
  8
1
  6
Continuous
 62
     7
100
AcDbVertex
100
AcDb2dVertex
 10
5218.953156
 20
1333.232657
 30
0.0
  0
SEQEND
  5
379
100
AcDbEntity
  8
1
  6
Continuous
 62
     7
  0
LINE
  5
37A
100
AcDbEntity
  8
1
  6
Continuous
 62
     7
100
AcDbLine
 10
5218.953156
 20
1333.232657
 30
0.0
 11
5218.953156
 21
1285.465101
 31
0.0
  0
LINE
  5
37B
100
AcDbEntity
  8
1
  6
Continuous
 62
     7
100
AcDbLine
 10
5158.953156
 20
1225.465101
 30
0.0
 11
5086.316164
 21
1225.465101
 31
0.0
  0
ARC
  5
37C
100
AcDbEntity
  8
1
  6
Continuous
 62
     7
100
AcDbCircle
 10
5158.953156
 20
1285.465101
 30
0.0
 40
60.0
100
AcDbArc
 50
-90.0
 51
0.0
  0
ENDBLK
  5
37D
100
AcDbEntity
  8
0
100
AcDbBlockEnd
  0
BLOCK
  5
382
100
AcDbEntity
  8
1
  6
Continuous
 62
     7
100
AcDbBlockBegin
  2
*D28
 70
     0
 10
0.0
 20
0.0
 30
0.0
  3
*D28
  1

  0
LINE
  5
383
100
AcDbEntity
  8
1
  6
Continuous
 62
     7
100
AcDbLine
 10
3985.738689
 20
948.052113
 30
0.0
 11
3985.738689
 21
1648.052113
 31
0.0
  0
LINE
  5
384
100
AcDbEntity
  8
1
  6
Continuous
 62
     7
100
AcDbLine
 10
3995.738689
 20
948.052113
 30
0.0
 11
3289.84129
 21
948.052113
 31
0.0
  0
LINE
  5
385
100
AcDbEntity
  8
1
  6
Continuous
 62
     7
100
AcDbLine
 10
3995.738689
 20
1648.052113
 30
0.0
 11
3292.34129
 21
1648.052113
 31
0.0
  0
LINE
  5
386
100
AcDbEntity
  8
1
  6
Continuous
 62
     7
100
AcDbLine
 10
3985.738689
 20
948.052113
 30
0.0
 11
3972.797736
 21
996.348404
 31
0.0
  0
LINE
  5
387
100
AcDbEntity
  8
1
  6
Continuous
 62
     7
100
AcDbLine
 10
3985.738689
 20
948.052113
 30
0.0
 11
3998.679641
 21
996.348404
 31
0.0
  0
LINE
  5
388
100
AcDbEntity
  8
1
  6
Continuous
 62
     7
100
AcDbLine
 10
3985.738689
 20
1648.052113
 30
0.0
 11
3998.679641
 21
1599.755821
 31
0.0
  0
LINE
  5
389
100
AcDbEntity
  8
1
  6
Continuous
 62
     7
100
AcDbLine
 10
3985.738689
 20
1648.052113
 30
0.0
 11
3972.797736
 21
1599.755821
 31
0.0
  0
TEXT
  5
38A
100
AcDbEntity
  8
1
  6
Continuous
 62
     7
100
AcDbText
 10
3985.738689
 20
998.052113
 30
0.0
 40
80.0
  1
基礎地中深さ700
 50
90.0
 41
0.735294
 11
3985.738689
 21
998.052113
 31
0.0
100
AcDbText
 73
     1
  0
ENDBLK
  5
38B
100
AcDbEntity
  8
1
  6
Continuous
 62
     7
100
AcDbBlockEnd
  0
BLOCK
  5
38E
100
AcDbEntity
  8
1
  6
Continuous
 62
     7
100
AcDbBlockBegin
  2
*D29
 70
     0
 10
0.0
 20
0.0
 30
0.0
  3
*D29
  1

  0
LINE
  5
38F
100
AcDbEntity
  8
1
  6
Continuous
 62
     7
100
AcDbLine
 10
3985.738689
 20
1568.052113
 30
0.0
 11
3985.738689
 21
2288.041864
 31
0.0
  0
LINE
  5
390
100
AcDbEntity
  8
1
  6
Continuous
 62
     7
100
AcDbLine
 10
3995.738689
 20
1648.052113
 30
0.0
 11
3292.34129
 21
1648.052113
 31
0.0
  0
LINE
  5
391
100
AcDbEntity
  8
1
  6
Continuous
 62
     7
100
AcDbLine
 10
3995.738689
 20
1668.052113
 30
0.0
 11
3289.84129
 21
1668.052113
 31
0.0
  0
LINE
  5
392
100
AcDbEntity
  8
1
  6
Continuous
 62
     7
100
AcDbLine
 10
3985.738689
 20
1648.052113
 30
0.0
 11
3998.679641
 21
1599.755821
 31
0.0
  0
LINE
  5
393
100
AcDbEntity
  8
1
  6
Continuous
 62
     7
100
AcDbLine
 10
3985.738689
 20
1648.052113
 30
0.0
 11
3972.797736
 21
1599.755821
 31
0.0
  0
LINE
  5
394
100
AcDbEntity
  8
1
  6
Continuous
 62
     7
100
AcDbLine
 10
3985.738689
 20
1668.052113
 30
0.0
 11
3972.797736
 21
1716.348404
 31
0.0
  0
LINE
  5
395
100
AcDbEntity
  8
1
  6
Continuous
 62
     7
100
AcDbLine
 10
3985.738689
 20
1668.052113
 30
0.0
 11
3998.679641
 21
1716.348404
 31
0.0
  0
TEXT
  5
396
100
AcDbEntity
  8
1
  6
Continuous
 62
     7
100
AcDbText
 10
3985.738689
 20
1708.041864
 30
0.0
 40
80.0
  1
基礎地上高さ20
 50
90.0
 41
0.76087
 11
3985.738689
 21
1708.041864
 31
0.0
100
AcDbText
 73
     1
  0
ENDBLK
  5
397
100
AcDbEntity
  8
1
  6
Continuous
 62
     7
100
AcDbBlockEnd
  0
BLOCK
  5
39A
100
AcDbEntity
  8
1
  6
Continuous
 62
     7
100
AcDbBlockBegin
  2
*D30
 70
     0
 10
0.0
 20
0.0
 30
0.0
  3
*D30
  1

  0
LINE
  5
39B
100
AcDbEntity
  8
1
  6
Continuous
 62
     7
100
AcDbLine
 10
5299.84129
 20
4208.364126
 30
0.0
 11
2979.84129
 21
4208.364126
 31
0.0
  0
LINE
  5
39C
100
AcDbEntity
  8
1
  6
Continuous
 62
     7
100
AcDbLine
 10
5299.84129
 20
4218.364126
 30
0.0
 11
5299.84129
 21
4087.663309
 31
0.0
  0
LINE
  5
39D
100
AcDbEntity
  8
1
  6
Continuous
 62
     7
100
AcDbLine
 10
2979.84129
 20
4218.364126
 30
0.0
 11
2979.84129
 21
4087.663309
 31
0.0
  0
LINE
  5
39E
100
AcDbEntity
  8
1
  6
Continuous
 62
     7
100
AcDbLine
 10
5299.84129
 20
4208.364126
 30
0.0
 11
5251.544999
 21
4195.423173
 31
0.0
  0
LINE
  5
39F
100
AcDbEntity
  8
1
  6
Continuous
 62
     7
100
AcDbLine
 10
5299.84129
 20
4208.364126
 30
0.0
 11
5251.544999
 21
4221.305078
 31
0.0
  0
LINE
  5
3A0
100
AcDbEntity
  8
1
  6
Continuous
 62
     7
100
AcDbLine
 10
2979.84129
 20
4208.364126
 30
0.0
 11
3028.137581
 21
4221.305078
 31
0.0
  0
LINE
  5
3A1
100
AcDbEntity
  8
1
  6
Continuous
 62
     7
100
AcDbLine
 10
2979.84129
 20
4208.364126
 30
0.0
 11
3028.137581
 21
4195.423173
 31
0.0
  0
TEXT
  5
3A2
100
AcDbEntity
  8
1
  6
Continuous
 62
     7
100
AcDbText
 10
3979.84129
 20
4208.364126
 30
0.0
 40
80.0
  1
P 柱中心
 41
0.769231
 11
3979.84129
 21
4208.364126
 31
0.0
100
AcDbText
 73
     1
  0
ENDBLK
  5
3A3
100
AcDbEntity
  8
1
  6
Continuous
 62
     7
100
AcDbBlockEnd
  0
BLOCK
  5
3B2
100
AcDbEntity
  8
1
  6
Continuous
 62
     7
100
AcDbBlockBegin
  2
*G31
 70
     0
 10
0.0
 20
0.0
 30
0.0
  3
*G31
  1

  0
LINE
  5
3B3
100
AcDbEntity
  8
1
  6
Continuous
 62
     7
100
AcDbLine
 10
2679.84129
 20
5206.234825
 30
0.0
 11
2679.84129
 21
4606.234825
 31
0.0
  0
LINE
  5
3B4
100
AcDbEntity
  8
1
  6
Continuous
 62
     7
100
AcDbLine
 10
2679.84129
 20
4606.234825
 30
0.0
 11
3279.84129
 21
4606.234825
 31
0.0
  0
LINE
  5
3B5
100
AcDbEntity
  8
1
  6
Continuous
 62
     7
100
AcDbLine
 10
3279.84129
 20
5206.234825
 30
0.0
 11
2679.84129
 21
5206.234825
 31
0.0
  0
LINE
  5
3B6
100
AcDbEntity
  8
1
  6
Continuous
 62
     7
100
AcDbLine
 10
3279.84129
 20
4606.234825
 30
0.0
 11
3279.84129
 21
4861.234825
 31
0.0
  0
LINE
  5
3B7
100
AcDbEntity
  8
1
  6
Continuous
 62
     7
100
AcDbLine
 10
3279.84129
 20
4933.234825
 30
0.0
 11
3279.84129
 21
5206.234825
 31
0.0
  0
ENDBLK
  5
3B8
100
AcDbEntity
  8
0
100
AcDbBlockEnd
  0
BLOCK
  5
3BE
100
AcDbEntity
  8
1
  6
Continuous
 62
     7
100
AcDbBlockBegin
  2
*G32
 70
     0
 10
0.0
 20
0.0
 30
0.0
  3
*G32
  1

  0
LINE
  5
3BF
100
AcDbEntity
  8
1
  6
Continuous
 62
     7
100
AcDbLine
 10
4999.84129
 20
4606.234825
 30
0.0
 11
5599.84129
 21
4606.234825
 31
0.0
  0
LINE
  5
3C0
100
AcDbEntity
  8
1
  6
Continuous
 62
     7
100
AcDbLine
 10
5599.84129
 20
4606.234825
 30
0.0
 11
5599.84129
 21
5206.234825
 31
0.0
  0
LINE
  5
3C1
100
AcDbEntity
  8
1
  6
Continuous
 62
     7
100
AcDbLine
 10
5599.84129
 20
5206.234825
 30
0.0
 11
4999.84129
 21
5206.234825
 31
0.0
  0
LINE
  5
3C2
100
AcDbEntity
  8
1
  6
Continuous
 62
     7
100
AcDbLine
 10
4999.84129
 20
4861.234825
 30
0.0
 11
4999.84129
 21
4606.234825
 31
0.0
  0
LINE
  5
3C3
100
AcDbEntity
  8
1
  6
Continuous
 62
     7
100
AcDbLine
 10
4999.84129
 20
5206.234825
 30
0.0
 11
4999.84129
 21
4933.234825
 31
0.0
  0
ENDBLK
  5
3C4
100
AcDbEntity
  8
0
100
AcDbBlockEnd
  0
BLOCK
  5
3C7
100
AcDbEntity
  8
1
  6
Continuous
 62
     7
100
AcDbBlockBegin
  2
*D33
 70
     0
 10
0.0
 20
0.0
 30
0.0
  3
*D33
  1

  0
LINE
  5
3C8
100
AcDbEntity
  8
1
  6
Continuous
 62
     7
100
AcDbLine
 10
5780.409959
 20
4781.234825
 30
0.0
 11
5780.409959
 21
5074.978563
 31
0.0
  0
LINE
  5
3C9
100
AcDbEntity
  8
1
  6
Continuous
 62
     7
100
AcDbLine
 10
5790.409959
 20
4861.234825
 30
0.0
 11
5266.467911
 21
4861.234825
 31
0.0
  0
LINE
  5
3CA
100
AcDbEntity
  8
1
  6
Continuous
 62
     7
100
AcDbLine
 10
5790.409959
 20
4933.234825
 30
0.0
 11
5253.47419
 21
4933.234825
 31
0.0
  0
LINE
  5
3CB
100
AcDbEntity
  8
1
  6
Continuous
 62
     7
100
AcDbLine
 10
5780.409959
 20
4861.234825
 30
0.0
 11
5793.350911
 21
4812.938534
 31
0.0
  0
LINE
  5
3CC
100
AcDbEntity
  8
1
  6
Continuous
 62
     7
100
AcDbLine
 10
5780.409959
 20
4861.234825
 30
0.0
 11
5767.469006
 21
4812.938534
 31
0.0
  0
LINE
  5
3CD
100
AcDbEntity
  8
1
  6
Continuous
 62
     7
100
AcDbLine
 10
5780.409959
 20
4933.234825
 30
0.0
 11
5767.469006
 21
4981.531117
 31
0.0
  0
LINE
  5
3CE
100
AcDbEntity
  8
1
  6
Continuous
 62
     7
100
AcDbLine
 10
5780.409959
 20
4933.234825
 30
0.0
 11
5793.350911
 21
4981.531117
 31
0.0
  0
TEXT
  5
3CF
100
AcDbEntity
  8
1
  6
Continuous
 62
     7
100
AcDbText
 10
5780.409959
 20
4974.978563
 30
0.0
 40
80.0
  1
72
 50
90.0
 41
0.5
 11
5780.409959
 21
4974.978563
 31
0.0
100
AcDbText
 73
     1
  0
ENDBLK
  5
3D0
100
AcDbEntity
  8
1
  6
Continuous
 62
     7
100
AcDbBlockEnd
  0
BLOCK
  5
3D3
100
AcDbEntity
  8
1
  6
Continuous
 62
     7
100
AcDbBlockBegin
  2
*G34
 70
     0
 10
0.0
 20
0.0
 30
0.0
  3
*G34
  1

  0
INSERT
  5
3DB
100
AcDbEntity
  8
1
  6
Continuous
 62
     7
100
AcDbBlockReference
  2
*G35
 10
0.0
 20
0.0
 30
0.0
  0
INSERT
  5
405
100
AcDbEntity
  8
1
  6
Continuous
 62
     7
100
AcDbBlockReference
  2
*G36
 10
0.0
 20
0.0
 30
0.0
  0
ENDBLK
  5
406
100
AcDbEntity
  8
0
100
AcDbBlockEnd
  0
BLOCK
  5
3D5
100
AcDbEntity
  8
1
  6
Continuous
 62
     7
100
AcDbBlockBegin
  2
*G35
 70
     0
 10
0.0
 20
0.0
 30
0.0
  3
*G35
  1

  0
LINE
  5
3D6
100
AcDbEntity
  8
1
  6
Continuous
 62
     7
100
AcDbLine
 10
8160.0
 20
5680.0
 30
0.0
 11
80.0
 21
5680.0
 31
0.0
  0
LINE
  5
3D7
100
AcDbEntity
  8
1
  6
Continuous
 62
     7
100
AcDbLine
 10
8160.0
 20
40.0
 30
0.0
 11
8160.0
 21
5680.0
 31
0.0
  0
LINE
  5
3D8
100
AcDbEntity
  8
1
  6
Continuous
 62
     7
100
AcDbLine
 10
80.0
 20
40.0
 30
0.0
 11
8160.0
 21
40.0
 31
0.0
  0
LINE
  5
3D9
100
AcDbEntity
  8
1
  6
Continuous
 62
     7
100
AcDbLine
 10
80.0
 20
5680.0
 30
0.0
 11
80.0
 21
40.0
 31
0.0
  0
ENDBLK
  5
3DA
100
AcDbEntity
  8
0
100
AcDbBlockEnd
  0
BLOCK
  5
3DD
100
AcDbEntity
  8
1
  6
Continuous
 62
     7
100
AcDbBlockBegin
  2
*G36
 70
     0
 10
0.0
 20
0.0
 30
0.0
  3
*G36
  1

  0
TEXT
  5
3DE
100
AcDbEntity
  8
1
  6
Continuous
 62
     7
100
AcDbText
 10
7654.453552
 20
40.0
 30
0.0
 40
50.0
  1
Exnos Co.,Ltd.
 41
0.564516
 11
7654.453552
 21
40.0
 31
0.0
100
AcDbText
 73
     1
  0
TEXT
  5
3DF
100
AcDbEntity
  8
1
  6
Continuous
 62
     7
100
AcDbText
 10
7989.392077
 20
160.0
 30
0.0
 40
50.0
  1
1
 41
0.5
 11
7989.392077
 21
160.0
 31
0.0
100
AcDbText
 73
     1
  0
LINE
  5
3E0
100
AcDbEntity
  8
1
  6
Continuous
 62
     7
100
AcDbLine
 10
7520.0
 20
340.0
 30
0.0
 11
8160.0
 21
340.0
 31
0.0
  0
TEXT
  5
3E1
100
AcDbEntity
  8
1
  6
Continuous
 62
     7
100
AcDbText
 10
6160.0
 20
59.285714
 30
0.0
 40
80.0
  1
部  番
 50
0.136418
 41
0.833333
 11
6160.0
 21
59.285714
 31
0.0
100
AcDbText
 73
     1
  0
TEXT
  5
3E2
100
AcDbEntity
  8
1
  6
Continuous
 62
     7
100
AcDbText
 10
7959.468955
 20
280.0
 30
0.0
 40
60.0
  1
K1
 41
0.5
 11
7959.468955
 21
280.0
 31
0.0
100
AcDbText
 73
     1
  0
TEXT
  5
3E3
100
AcDbEntity
  8
1
  6
Continuous
 62
     7
100
AcDbText
 10
7936.038251
 20
211.160594
 30
0.0
 40
50.0
  1
SIZE
 41
0.5
 11
7936.038251
 21
211.160594
 31
0.0
100
AcDbText
 73
     1
  0
TEXT
  5
3E4
100
AcDbEntity
  8
1
  6
Continuous
 62
     7
100
AcDbText
 10
7593.087432
 20
92.321189
 30
0.0
 40
60.0
  1
エクノス株式会社
 41
0.833333
 11
7593.087432
 21
92.321189
 31
0.0
100
AcDbText
 73
     1
  0
TEXT
  5
3E5
100
AcDbEntity
  8
1
  6
Continuous
 62
     7
100
AcDbText
 10
7641.370388
 20
211.989904
 30
0.0
 40
50.0
  1
DWG
 41
0.5
 11
7641.370388
 21
211.989904
 31
0.0
100
AcDbText
 73
     1
  0
TEXT
  5
3E6
100
AcDbEntity
  8
1
  6
Continuous
 62
     7
100
AcDbText
 10
7582.015027
 20
160.0
 30
0.0
 40
50.0
  1
SHT.
 41
0.555556
 11
7582.015027
 21
160.0
 31
0.0
100
AcDbText
 73
     1
  0
TEXT
  5
3E7
100
AcDbEntity
  8
1
  6
Continuous
 62
     7
100
AcDbText
 10
7819.173497
 20
160.0
 30
0.0
 40
50.0
  1
OF
 41
0.5
 11
7819.173497
 21
160.0
 31
0.0
100
AcDbText
 73
     1
  0
TEXT
  5
3E8
100
AcDbEntity
  8
1
  6
Continuous
 62
     7
100
AcDbText
 10
7880.0
 20
280.0
 30
0.0
 40
60.0
  1
 
 41
0.833333
 51
15.0
 11
7880.0
 21
280.0
 31
0.0
100
AcDbText
 73
     1
  0
LINE
  5
3E9
100
AcDbEntity
  8
1
  6
Continuous
 62
     7
100
AcDbLine
 10
7520.0
 20
280.0
 30
0.0
 11
8160.0
 21
280.0
 31
0.0
  0
LINE
  5
3EA
100
AcDbEntity
  8
1
  6
Continuous
 62
     7
100
AcDbLine
 10
7520.0
 20
211.160594
 30
0.0
 11
8160.0
 21
211.160594
 31
0.0
  0
TEXT
  5
3EB
100
AcDbEntity
  8
1
  6
Continuous
 62
     7
100
AcDbText
 10
7731.195355
 20
160.0
 30
0.0
 40
50.0
  1
1
 41
0.5
 11
7731.195355
 21
160.0
 31
0.0
100
AcDbText
 73
     1
  0
TEXT
  5
3EC
100
AcDbEntity
  8
1
  6
Continuous
 62
     7
100
AcDbText
 10
4940.0
 20
320.0
 30
0.0
 40
60.0
  1
承認
 41
0.833333
 11
4940.0
 21
320.0
 31
0.0
100
AcDbText
 73
     1
  0
TEXT
  5
3ED
100
AcDbEntity
  8
1
  6
Continuous
 62
     7
100
AcDbText
 10
5340.0
 20
320.0
 30
0.0
 40
60.0
  1
検図
 41
0.833333
 11
5340.0
 21
320.0
 31
0.0
100
AcDbText
 73
     1
  0
TEXT
  5
3EE
100
AcDbEntity
  8
1
  6
Continuous
 62
     7
100
AcDbText
 10
5740.0
 20
320.0
 30
0.0
 40
60.0
  1
設計
 41
0.833333
 11
5740.0
 21
320.0
 31
0.0
100
AcDbText
 73
     1
  0
LINE
  5
3EF
100
AcDbEntity
  8
1
  6
Continuous
 62
     7
100
AcDbLine
 10
5320.0
 20
400.0
 30
0.0
 11
5320.0
 21
40.0
 31
0.0
  0
LINE
  5
3F0
100
AcDbEntity
  8
1
  6
Continuous
 62
     7
100
AcDbLine
 10
5720.0
 20
400.0
 30
0.0
 11
5720.0
 21
40.0
 31
0.0
  0
LINE
  5
3F1
100
AcDbEntity
  8
1
  6
Continuous
 62
     7
100
AcDbLine
 10
6440.0
 20
400.0
 30
0.0
 11
6440.0
 21
40.0
 31
0.0
  0
LINE
  5
3F2
100
AcDbEntity
  8
1
  6
Continuous
 62
     7
100
AcDbLine
 10
7788.572404
 20
400.0
 30
0.0
 11
7788.572404
 21
280.0
 31
0.0
  0
TEXT
  5
3F3
100
AcDbEntity
  8
1
  6
Continuous
 62
     7
100
AcDbText
 10
7590.0
 20
340.0
 30
0.0
 40
50.0
  1
改版日
 41
0.833333
 11
7590.0
 21
340.0
 31
0.0
100
AcDbText
 73
     1
  0
TEXT
  5
3F4
100
AcDbEntity
  8
1
  6
Continuous
 62
     7
100
AcDbText
 10
7556.174863
 20
280.0
 30
0.0
 40
50.0
  1
改版番号
 41
0.833333
 11
7556.174863
 21
280.0
 31
0.0
100
AcDbText
 73
     1
  0
TEXT
  5
3F5
100
AcDbEntity
  8
1
  6
Continuous
 62
     7
100
AcDbText
 10
6160.0
 20
281.885917
 30
0.0
 40
80.0
  1
部品名
 41
0.833333
 11
6160.0
 21
281.885917
 31
0.0
100
AcDbText
 73
     1
  0
TEXT
  5
3F6
100
AcDbEntity
  8
1
  6
Continuous
 62
     7
100
AcDbText
 10
7798.722678
 20
208.839406
 30
0.0
 40
70.0
  1
A3
 50
0.782645
 41
0.5
 11
7798.722678
 21
208.839406
 31
0.0
100
AcDbText
 73
     1
  0
LINE
  5
3F7
100
AcDbEntity
  8
1
  6
Continuous
 62
     7
100
AcDbLine
 10
6120.0
 20
400.0
 30
0.0
 11
6120.0
 21
40.0
 31
0.0
  0
LINE
  5
3F8
100
AcDbEntity
  8
1
  6
Continuous
 62
     7
100
AcDbLine
 10
7520.0
 20
400.0
 30
0.0
 11
7520.0
 21
40.0
 31
0.0
  0
LINE
  5
3F9
100
AcDbEntity
  8
1
  6
Continuous
 62
     7
100
AcDbLine
 10
8160.0
 20
160.0
 30
0.0
 11
6120.0
 21
160.0
 31
0.0
  0
INSERT
  5
401
100
AcDbEntity
  8
1
  6
Continuous
 62
     7
100
AcDbBlockReference
  2
*G37
 10
0.0
 20
0.0
 30
0.0
  0
TEXT
  5
402
100
AcDbEntity
  8
1
  6
Continuous
 62
     7
100
AcDbText
 10
6500.0
 20
60.0
 30
0.0
 40
80.0
  1
　
 50
-0.03115
 41
0.833333
 11
6500.0
 21
60.0
 31
0.0
100
AcDbText
 73
     1
  0
TEXT
  5
403
100
AcDbEntity
  8
1
  6
Continuous
 62
     7
100
AcDbText
 10
7805.540541
 20
340.0
 30
0.0
 40
60.0
  1
2003/00/00
 41
0.5
 51
15.0
 11
7805.540541
 21
340.0
 31
0.0
100
AcDbText
 73
     1
  0
ENDBLK
  5
404
100
AcDbEntity
  8
0
100
AcDbBlockEnd
  0
BLOCK
  5
3FB
100
AcDbEntity
  8
1
  6
Continuous
 62
     7
100
AcDbBlockBegin
  2
*G37
 70
     0
 10
0.0
 20
0.0
 30
0.0
  3
*G37
  1

  0
LINE
  5
3FC
100
AcDbEntity
  8
1
  6
Continuous
 62
     7
100
AcDbLine
 10
8160.0
 20
40.0
 30
0.0
 11
8160.0
 21
400.0
 31
0.0
  0
LINE
  5
3FD
100
AcDbEntity
  8
1
  6
Continuous
 62
     7
100
AcDbLine
 10
4916.956
 20
40.0
 30
0.0
 11
8160.0
 21
40.0
 31
0.0
  0
LINE
  5
3FE
100
AcDbEntity
  8
1
  6
Continuous
 62
     7
100
AcDbLine
 10
8160.0
 20
400.0
 30
0.0
 11
4920.0
 21
400.0
 31
0.0
  0
LINE
  5
3FF
100
AcDbEntity
  8
1
  6
Continuous
 62
     7
100
AcDbLine
 10
4920.0
 20
400.0
 30
0.0
 11
4920.0
 21
40.0
 31
0.0
  0
ENDBLK
  5
400
100
AcDbEntity
  8
0
100
AcDbBlockEnd
  0
BLOCK
  5
40A
100
AcDbEntity
  8
1
  6
Continuous
 62
     7
100
AcDbBlockBegin
  2
*G38
 70
     0
 10
0.0
 20
0.0
 30
0.0
  3
*G38
  1

  0
INSERT
  5
40F
100
AcDbEntity
  8
1
  6
Continuous
 62
     7
100
AcDbBlockReference
  2
*G39
 10
0.0
 20
0.0
 30
0.0
  0
ENDBLK
  5
410
100
AcDbEntity
  8
0
100
AcDbBlockEnd
  0
BLOCK
  5
40C
100
AcDbEntity
  8
1
  6
Continuous
 62
     7
100
AcDbBlockBegin
  2
*G39
 70
     0
 10
0.0
 20
0.0
 30
0.0
  3
*G39
  1

  0
TEXT
  5
40D
100
AcDbEntity
  8
1
  6
Continuous
 62
     7
100
AcDbText
 10
6517.436592
 20
287.438893
 30
0.0
 40
80.0
  1
屋外サインボード外観
 50
-0.016975
 41
0.833333
 11
6517.436592
 21
287.438893
 31
0.0
100
AcDbText
 73
     1
  0
ENDBLK
  5
40E
100
AcDbEntity
  8
0
100
AcDbBlockEnd
  0
ENDSEC
  0
SECTION
  2
ENTITIES
  0
TEXT
  5
41
100
AcDbEntity
  8
129
  6
Continuous
 62
     7
100
AcDbText
 10
5837.343559
 20
160.302776
 30
0.0
 40
50.0
  1
01.07.30
 41
0.555556
 11
5837.343559
 21
160.302776
 31
0.0
100
AcDbText
 73
     1
  0
TEXT
  5
42
100
AcDbEntity
  8
129
  6
Continuous
 62
     7
100
AcDbText
 10
5437.343559
 20
160.302776
 30
0.0
 40
50.0
  1
01.07.30
 41
0.555556
 11
5437.343559
 21
160.302776
 31
0.0
100
AcDbText
 73
     1
  0
TEXT
  5
43
100
AcDbEntity
  8
129
  6
Continuous
 62
     7
100
AcDbText
 10
5037.343559
 20
160.302776
 30
0.0
 40
50.0
  1
01.07.30
 41
0.555556
 11
5037.343559
 21
160.302776
 31
0.0
100
AcDbText
 73
     1
  0
TEXT
  5
44
100
AcDbEntity
  8
129
  6
Continuous
 62
     7
100
AcDbText
 10
5857.343559
 20
80.302776
 30
0.0
 40
60.0
  1
齋藤
 41
0.833333
 11
5857.343559
 21
80.302776
 31
0.0
100
AcDbText
 73
     1
  0
TEXT
  5
45
100
AcDbEntity
  8
129
  6
Continuous
 62
     7
100
AcDbText
 10
5457.343559
 20
80.302776
 30
0.0
 40
60.0
  1
佐高
 41
0.833333
 11
5457.343559
 21
80.302776
 31
0.0
100
AcDbText
 73
     1
  0
TEXT
  5
46
100
AcDbEntity
  8
129
  6
Continuous
 62
     7
100
AcDbText
 10
5827.343559
 20
214.302776
 30
0.0
 40
70.0
  1
∈
 41
0.833333
 11
5827.343559
 21
214.302776
 31
0.0
100
AcDbText
 73
     1
  0
TEXT
  5
47
100
AcDbEntity
  8
129
  6
Continuous
 62
     7
100
AcDbText
 10
5893.343559
 20
224.302776
 30
0.0
 40
50.0
  1
xnos
 41
0.5
 11
5893.343559
 21
224.302776
 31
0.0
100
AcDbText
 73
     1
  0
LINE
  5
48
100
AcDbEntity
  8
129
  6
Continuous
 62
     7
100
AcDbLine
 10
5805.688324
 20
144.302776
 30
0.0
 11
6048.998855
 21
144.302776
 31
0.0
  0
LINE
  5
49
100
AcDbEntity
  8
129
  6
Continuous
 62
     7
100
AcDbLine
 10
5805.688331
 20
224.302776
 30
0.0
 11
6048.998849
 21
224.302776
 31
0.0
  0
CIRCLE
  5
4A
100
AcDbEntity
  8
129
  6
Continuous
 62
     7
100
AcDbCircle
 10
5927.34359
 20
184.302766
 30
0.0
 40
128.062496
  0
TEXT
  5
4B
100
AcDbEntity
  8
129
  6
Continuous
 62
     7
100
AcDbText
 10
5427.343559
 20
214.302776
 30
0.0
 40
70.0
  1
∈
 41
0.833333
 11
5427.343559
 21
214.302776
 31
0.0
100
AcDbText
 73
     1
  0
TEXT
  5
4C
100
AcDbEntity
  8
129
  6
Continuous
 62
     7
100
AcDbText
 10
5493.343559
 20
224.302776
 30
0.0
 40
50.0
  1
xnos
 41
0.5
 11
5493.343559
 21
224.302776
 31
0.0
100
AcDbText
 73
     1
  0
LINE
  5
4D
100
AcDbEntity
  8
129
  6
Continuous
 62
     7
100
AcDbLine
 10
5405.688324
 20
144.302776
 30
0.0
 11
5648.998855
 21
144.302776
 31
0.0
  0
LINE
  5
4E
100
AcDbEntity
  8
129
  6
Continuous
 62
     7
100
AcDbLine
 10
5405.688331
 20
224.302776
 30
0.0
 11
5648.998849
 21
224.302776
 31
0.0
  0
CIRCLE
  5
4F
100
AcDbEntity
  8
129
  6
Continuous
 62
     7
100
AcDbCircle
 10
5527.34359
 20
184.302766
 30
0.0
 40
128.062496
  0
TEXT
  5
50
100
AcDbEntity
  8
129
  6
Continuous
 62
     7
100
AcDbText
 10
5027.343559
 20
214.302776
 30
0.0
 40
70.0
  1
∈
 41
0.833333
 11
5027.343559
 21
214.302776
 31
0.0
100
AcDbText
 73
     1
  0
TEXT
  5
51
100
AcDbEntity
  8
129
  6
Continuous
 62
     7
100
AcDbText
 10
5093.343559
 20
224.302776
 30
0.0
 40
50.0
  1
xnos
 41
0.5
 11
5093.343559
 21
224.302776
 31
0.0
100
AcDbText
 73
     1
  0
TEXT
  5
52
100
AcDbEntity
  8
129
  6
Continuous
 62
     7
100
AcDbText
 10
5057.343559
 20
80.302776
 30
0.0
 40
60.0
  1
佐藤
 41
0.833333
 11
5057.343559
 21
80.302776
 31
0.0
100
AcDbText
 73
     1
  0
LINE
  5
53
100
AcDbEntity
  8
129
  6
Continuous
 62
     7
100
AcDbLine
 10
5005.688324
 20
144.302776
 30
0.0
 11
5248.998855
 21
144.302776
 31
0.0
  0
LINE
  5
54
100
AcDbEntity
  8
129
  6
Continuous
 62
     7
100
AcDbLine
 10
5005.688331
 20
224.302776
 30
0.0
 11
5248.998849
 21
224.302776
 31
0.0
  0
CIRCLE
  5
55
100
AcDbEntity
  8
129
  6
Continuous
 62
     7
100
AcDbCircle
 10
5127.34359
 20
184.302766
 30
0.0
 40
128.062496
  0
ARC
  5
56
100
AcDbEntity
  8
3
  6
CENTER
 62
   214
100
AcDbCircle
 10
1759.412428
 20
4079.166106
 30
0.0
 40
560.0
100
AcDbArc
 50
53.949517
 51
65.621276
  0
ARC
  5
57
100
AcDbEntity
  8
3
  6
CENTER
 62
   214
100
AcDbCircle
 10
1759.412428
 20
4079.166106
 30
0.0
 40
560.0
100
AcDbArc
 50
-65.531665
 51
-53.607939
  0
LINE
  5
58
100
AcDbEntity
  8
3
  6
CENTER
 62
   214
100
AcDbLine
 10
1542.128631
 20
4169.166102
 30
0.0
 11
1425.035573
 21
4169.166102
 31
0.0
  0
INSERT
  5
C3
100
AcDbEntity
  8
3
  6
Continuous
 62
   214
100
AcDbBlockReference
  2
*G0
 10
0.0
 20
0.0
 30
0.0
  0
INSERT
  5
C9
100
AcDbEntity
  8
3
  6
Continuous
 62
   214
100
AcDbBlockReference
  2
*G4
 10
0.0
 20
0.0
 30
0.0
  0
DIMENSION
  5
D5
100
AcDbEntity
  8
3
  6
Continuous
 62
   214
100
AcDbDimension
  2
*D5
 10
1036.567835
 20
3969.166106
 30
0.0
 11
996.567835
 21
4169.166106
 31
0.0
  1
40
100
AcDbAlignedDimension
 13
1158.5406
 23
3969.166106
 33
0.0
 14
1235.700446
 24
4369.166106
 34
0.0
 50
90.0
100
AcDbRotatedDimension
  0
INSERT
  5
100
100
AcDbEntity
  8
3
  6
Continuous
 62
   214
100
AcDbBlockReference
  2
*G6
 10
0.0
 20
0.0
 30
0.0
  0
CIRCLE
  5
101
100
AcDbEntity
  8
3
  6
Continuous
 62
   214
100
AcDbCircle
 10
1299.913835
 20
4242.430027
 30
0.0
 40
110.0
  0
CIRCLE
  5
102
100
AcDbEntity
  8
3
  6
Continuous
 62
   214
100
AcDbCircle
 10
1282.331828
 20
4113.005275
 30
0.0
 40
125.0
  0
LINE
  5
103
100
AcDbEntity
  8
3
  6
Continuous
 62
   214
100
AcDbLine
 10
923.722363
 20
4079.166106
 30
0.0
 11
846.448297
 21
4058.460583
 31
0.0
  0
LINE
  5
104
100
AcDbEntity
  8
3
  6
Continuous
 62
   214
100
AcDbLine
 10
923.722363
 20
4079.166106
 30
0.0
 11
846.448297
 21
4099.87163
 31
0.0
  0
POLYLINE
  5
105
100
AcDbEntity
  8
3
  6
Continuous
 62
   214
100
AcDb2dPolyline
 66
     1
 10
0.0
 20
0.0
 30
0.0
  0
VERTEX
  5
106
100
AcDbEntity
  8
3
  6
Continuous
 62
   214
100
AcDbVertex
100
AcDb2dVertex
 10
923.722363
 20
4079.166106
 30
0.0
  0
VERTEX
  5
107
100
AcDbEntity
  8
3
  6
Continuous
 62
   214
100
AcDbVertex
100
AcDb2dVertex
 10
541.379077
 20
4079.166106
 30
0.0
  0
SEQEND
  5
108
100
AcDbEntity
  8
3
  6
Continuous
 62
   214
  0
LINE
  5
109
100
AcDbEntity
  8
3
  6
Continuous
 62
   214
100
AcDbLine
 10
1350.932892
 20
2803.684707
 30
0.0
 11
2278.541524
 21
2803.684707
 31
0.0
  0
CIRCLE
  5
10A
100
AcDbEntity
  8
3
  6
Continuous
 62
   214
100
AcDbCircle
 10
1315.086795
 20
4261.112231
 30
0.0
 40
95.0
  0
CIRCLE
  5
10B
100
AcDbEntity
  8
3
  6
Continuous
 62
   214
100
AcDbCircle
 10
1251.349212
 20
4080.264152
 30
0.0
 40
95.0
  0
TEXT
  5
10C
100
AcDbEntity
  8
3
  6
Continuous
 62
   214
100
AcDbText
 10
409.256675
 20
4120.312845
 30
0.0
 40
100.0
  1
柱内側
 41
0.833333
 11
409.256675
 21
4120.312845
 31
0.0
100
AcDbText
 73
     1
  0
CIRCLE
  5
10D
100
AcDbEntity
  8
3
  6
Continuous
 62
   214
100
AcDbCircle
 10
1559.412428
 20
4079.166106
 30
0.0
 40
1000.0
  0
INSERT
  5
113
100
AcDbEntity
  8
3
  6
Continuous
 62
   214
100
AcDbBlockReference
  2
*G7
 10
0.0
 20
0.0
 30
0.0
  0
DIMENSION
  5
11F
100
AcDbEntity
  8
3
  6
Continuous
 62
   214
100
AcDbDimension
  2
*D8
 10
1759.412428
 20
5233.945047
 30
0.0
 11
1659.412428
 21
5273.945047
 31
0.0
  1
20
100
AcDbAlignedDimension
 13
1759.412428
 23
5153.030124
 33
0.0
 14
1559.412428
 24
5153.030124
 34
0.0
100
AcDbRotatedDimension
  0
DIMENSION
  5
129
100
AcDbEntity
  8
3
  6
Continuous
 62
   214
100
AcDbDimension
  2
*D9
 10
594.15721
 20
3817.857161
 30
0.0
 11
1998.285557
 21
4239.415408
 31
0.0
 70
     3
  1
φ200
100
AcDbDiametricDimension
 15
2524.667645
 25
4340.475051
 35
0.0
 40
0.0
 50
15.147744
  0
LINE
  5
12A
100
AcDbEntity
  8
3
  6
Continuous
 62
   214
100
AcDbLine
 10
1232.712319
 20
4329.51594
 30
0.0
 11
1180.265114
 21
4389.9253
 31
0.0
  0
LINE
  5
12B
100
AcDbEntity
  8
3
  6
Continuous
 62
   214
100
AcDbLine
 10
1232.712319
 20
4329.51594
 30
0.0
 11
1217.496387
 21
4408.055582
 31
0.0
  0
POLYLINE
  5
12C
100
AcDbEntity
  8
3
  6
Continuous
 62
   214
100
AcDb2dPolyline
 66
     1
 10
0.0
 20
0.0
 30
0.0
  0
VERTEX
  5
12D
100
AcDbEntity
  8
3
  6
Continuous
 62
   214
100
AcDbVertex
100
AcDb2dVertex
 10
1232.712319
 20
4329.51594
 30
0.0
  0
VERTEX
  5
12E
100
AcDbEntity
  8
3
  6
Continuous
 62
   214
100
AcDbVertex
100
AcDb2dVertex
 10
963.275117
 20
4882.816196
 30
0.0
  0
VERTEX
  5
12F
100
AcDbEntity
  8
3
  6
Continuous
 62
   214
100
AcDbVertex
100
AcDb2dVertex
 10
403.275117
 20
4882.816196
 30
0.0
  0
SEQEND
  5
130
100
AcDbEntity
  8
3
  6
Continuous
 62
   214
  0
TEXT
  5
131
100
AcDbEntity
  8
3
  6
Continuous
 62
   214
100
AcDbText
 10
403.275117
 20
4882.816196
 30
0.0
 40
80.0
  1
CD管立上げ位置
 41
0.76087
 11
403.275117
 21
4882.816196
 31
0.0
100
AcDbText
 73
     1
  0
TEXT
  5
132
100
AcDbEntity
  8
3
  6
Continuous
 62
   214
100
AcDbText
 10
1397.507384
 20
2819.209537
 30
0.0
 40
100.0
  1
右柱詳細図　S=1/2
 41
0.696721
 11
1397.507384
 21
2819.209537
 31
0.0
100
AcDbText
 73
     1
  0
CIRCLE
  5
133
100
AcDbEntity
  8
1
  6
Continuous
 62
     7
100
AcDbCircle
 10
5299.84129
 20
4906.234825
 30
0.0
 40
62.5
  0
CIRCLE
  5
134
100
AcDbEntity
  8
1
  6
Continuous
 62
     7
100
AcDbCircle
 10
2979.84129
 20
4906.234825
 30
0.0
 40
62.5
  0
TEXT
  5
135
100
AcDbEntity
  8
128
  6
Continuous
 62
     7
100
AcDbText
 10
6036.748131
 20
3004.904304
 30
0.0
 40
100.0
  1
①
 41
0.833333
 11
6036.748131
 21
3004.904304
 31
0.0
100
AcDbText
 73
     1
  0
TEXT
  5
136
100
AcDbEntity
  8
128
  6
Continuous
 62
     7
100
AcDbText
 10
6036.748131
 20
2844.904304
 30
0.0
 40
100.0
  1
②
 41
0.833333
 11
6036.748131
 21
2844.904304
 31
0.0
100
AcDbText
 73
     1
  0
TEXT
  5
137
100
AcDbEntity
  8
128
  6
Continuous
 62
     7
100
AcDbText
 10
6036.748131
 20
2684.904304
 30
0.0
 40
100.0
  1
③
 41
0.833333
 11
6036.748131
 21
2684.904304
 31
0.0
100
AcDbText
 73
     1
  0
TEXT
  5
138
100
AcDbEntity
  8
128
  6
Continuous
 62
     7
100
AcDbText
 10
6036.748131
 20
2524.904304
 30
0.0
 40
100.0
  1
④
 41
0.833333
 11
6036.748131
 21
2524.904304
 31
0.0
100
AcDbText
 73
     1
  0
TEXT
  5
139
100
AcDbEntity
  8
128
  6
Continuous
 62
     7
100
AcDbText
 10
6036.748131
 20
2364.904304
 30
0.0
 40
100.0
  1
⑤
 41
0.833333
 11
6036.748131
 21
2364.904304
 31
0.0
100
AcDbText
 73
     1
  0
LINE
  5
13A
100
AcDbEntity
  8
128
  6
Continuous
 62
     7
100
AcDbLine
 10
5985.22272
 20
3136.09004
 30
0.0
 11
7385.22272
 21
3136.09004
 31
0.0
  0
LINE
  5
13B
100
AcDbEntity
  8
128
  6
Continuous
 62
     7
100
AcDbLine
 10
5985.22272
 20
2976.09004
 30
0.0
 11
7385.22272
 21
2976.09004
 31
0.0
  0
LINE
  5
13C
100
AcDbEntity
  8
128
  6
Continuous
 62
     7
100
AcDbLine
 10
5985.22272
 20
2816.09004
 30
0.0
 11
7385.22272
 21
2816.09004
 31
0.0
  0
LINE
  5
13D
100
AcDbEntity
  8
128
  6
Continuous
 62
     7
100
AcDbLine
 10
5985.22272
 20
2656.09004
 30
0.0
 11
7385.22272
 21
2656.09004
 31
0.0
  0
LINE
  5
13E
100
AcDbEntity
  8
128
  6
Continuous
 62
     7
100
AcDbLine
 10
5985.22272
 20
2496.09004
 30
0.0
 11
7385.22272
 21
2496.09004
 31
0.0
  0
TEXT
  5
13F
100
AcDbEntity
  8
128
  6
Continuous
 62
     7
100
AcDbText
 10
6236.748131
 20
3164.904304
 30
0.0
 40
100.0
  1
Ｗ
 41
0.833333
 11
6236.748131
 21
3164.904304
 31
0.0
100
AcDbText
 73
     1
  0
TEXT
  5
140
100
AcDbEntity
  8
128
  6
Continuous
 62
     7
100
AcDbText
 10
6636.748131
 20
3164.904304
 30
0.0
 40
100.0
  1
Ｈ
 41
0.833333
 11
6636.748131
 21
3164.904304
 31
0.0
100
AcDbText
 73
     1
  0
TEXT
  5
141
100
AcDbEntity
  8
128
  6
Continuous
 62
     7
100
AcDbText
 10
7036.748131
 20
3164.904304
 30
0.0
 40
100.0
  1
Ｐ
 41
0.833333
 11
7036.748131
 21
3164.904304
 31
0.0
100
AcDbText
 73
     1
  0
TEXT
  5
142
100
AcDbEntity
  8
128
  6
Continuous
 62
     7
100
AcDbText
 10
6236.748131
 20
3004.904304
 30
0.0
 40
100.0
  1
1500
 41
0.5
 11
6236.748131
 21
3004.904304
 31
0.0
100
AcDbText
 73
     1
  0
TEXT
  5
143
100
AcDbEntity
  8
128
  6
Continuous
 62
     7
100
AcDbText
 10
6636.748131
 20
3004.904304
 30
0.0
 40
100.0
  1
1200
 41
0.5
 11
6636.748131
 21
3004.904304
 31
0.0
100
AcDbText
 73
     1
  0
TEXT
  5
144
100
AcDbEntity
  8
128
  6
Continuous
 62
     7
100
AcDbText
 10
6236.748131
 20
2844.904304
 30
0.0
 40
100.0
  1
1800
 41
0.5
 11
6236.748131
 21
2844.904304
 31
0.0
100
AcDbText
 73
     1
  0
TEXT
  5
145
100
AcDbEntity
  8
128
  6
Continuous
 62
     7
100
AcDbText
 10
6636.748131
 20
2844.904304
 30
0.0
 40
100.0
  1
1500
 41
0.5
 11
6636.748131
 21
2844.904304
 31
0.0
100
AcDbText
 73
     1
  0
TEXT
  5
146
100
AcDbEntity
  8
128
  6
Continuous
 62
     7
100
AcDbText
 10
6236.748131
 20
2684.904304
 30
0.0
 40
100.0
  1
2250
 41
0.5
 11
6236.748131
 21
2684.904304
 31
0.0
100
AcDbText
 73
     1
  0
TEXT
  5
147
100
AcDbEntity
  8
128
  6
Continuous
 62
     7
100
AcDbText
 10
6636.748131
 20
2684.904304
 30
0.0
 40
100.0
  1
1500
 41
0.5
 11
6636.748131
 21
2684.904304
 31
0.0
100
AcDbText
 73
     1
  0
TEXT
  5
148
100
AcDbEntity
  8
128
  6
Continuous
 62
     7
100
AcDbText
 10
6236.748131
 20
2524.904304
 30
0.0
 40
100.0
  1
2500
 41
0.5
 11
6236.748131
 21
2524.904304
 31
0.0
100
AcDbText
 73
     1
  0
TEXT
  5
149
100
AcDbEntity
  8
128
  6
Continuous
 62
     7
100
AcDbText
 10
6636.748131
 20
2524.904304
 30
0.0
 40
100.0
  1
2000
 41
0.5
 11
6636.748131
 21
2524.904304
 31
0.0
100
AcDbText
 73
     1
  0
TEXT
  5
14A
100
AcDbEntity
  8
128
  6
Continuous
 62
     7
100
AcDbText
 10
6236.748131
 20
2364.904304
 30
0.0
 40
100.0
  1
3000
 41
0.5
 11
6236.748131
 21
2364.904304
 31
0.0
100
AcDbText
 73
     1
  0
TEXT
  5
14B
100
AcDbEntity
  8
128
  6
Continuous
 62
     7
100
AcDbText
 10
6636.748131
 20
2364.904304
 30
0.0
 40
100.0
  1
2000
 41
0.5
 11
6636.748131
 21
2364.904304
 31
0.0
100
AcDbText
 73
     1
  0
TEXT
  5
14C
100
AcDbEntity
  8
128
  6
Continuous
 62
     7
100
AcDbText
 10
7036.748131
 20
2684.904304
 30
0.0
 40
100.0
  1
2320
 41
0.5
 11
7036.748131
 21
2684.904304
 31
0.0
100
AcDbText
 73
     1
  0
TEXT
  5
14D
100
AcDbEntity
  8
128
  6
Continuous
 62
     7
100
AcDbText
 10
7036.748131
 20
3004.904304
 30
0.0
 40
100.0
  1
1570
 41
0.5
 11
7036.748131
 21
3004.904304
 31
0.0
100
AcDbText
 73
     1
  0
TEXT
  5
14E
100
AcDbEntity
  8
128
  6
Continuous
 62
     7
100
AcDbText
 10
7036.748131
 20
2844.904304
 30
0.0
 40
100.0
  1
1870
 41
0.5
 11
7036.748131
 21
2844.904304
 31
0.0
100
AcDbText
 73
     1
  0
TEXT
  5
14F
100
AcDbEntity
  8
128
  6
Continuous
 62
     7
100
AcDbText
 10
7036.748131
 20
2524.904304
 30
0.0
 40
100.0
  1
2570
 41
0.5
 11
7036.748131
 21
2524.904304
 31
0.0
100
AcDbText
 73
     1
  0
TEXT
  5
150
100
AcDbEntity
  8
128
  6
Continuous
 62
     7
100
AcDbText
 10
7036.748131
 20
2364.904304
 30
0.0
 40
100.0
  1
3070
 41
0.5
 11
7036.748131
 21
2364.904304
 31
0.0
100
AcDbText
 73
     1
  0
LINE
  5
151
100
AcDbEntity
  8
128
  6
Continuous
 62
     7
100
AcDbLine
 10
6185.22272
 20
3296.09004
 30
0.0
 11
6185.22272
 21
2336.09004
 31
0.0
  0
INSERT
  5
159
100
AcDbEntity
  8
128
  6
Continuous
 62
     7
100
AcDbBlockReference
  2
*G10
 10
0.0
 20
0.0
 30
0.0
  0
LINE
  5
15A
100
AcDbEntity
  8
128
  6
Continuous
 62
     7
100
AcDbLine
 10
6585.22272
 20
2336.09004
 30
0.0
 11
6585.22272
 21
3296.09004
 31
0.0
  0
LINE
  5
15B
100
AcDbEntity
  8
128
  6
Continuous
 62
     7
100
AcDbLine
 10
6985.22272
 20
3296.09004
 30
0.0
 11
6985.22272
 21
2336.09004
 31
0.0
  0
INSERT
  5
161
100
AcDbEntity
  8
1
  6
Continuous
 62
     7
100
AcDbBlockReference
  2
*G11
 10
0.0
 20
0.0
 30
0.0
  0
INSERT
  5
167
100
AcDbEntity
  8
1
  6
Continuous
 62
     7
100
AcDbBlockReference
  2
*G12
 10
0.0
 20
0.0
 30
0.0
  0
DIMENSION
  5
173
100
AcDbEntity
  8
1
  6
Continuous
 62
     7
100
AcDbDimension
  2
*D13
 10
2999.84129
 20
4442.692629
 30
0.0
 11
4139.84129
 21
4482.692629
 31
0.0
  1
1530ボイド中心
100
AcDbAlignedDimension
 13
2999.84129
 23
4774.278948
 33
0.0
 14
5279.84129
 24
4774.278948
 34
0.0
100
AcDbRotatedDimension
  0
TEXT
  5
174
100
AcDbEntity
  8
3
  6
Continuous
 62
   214
100
AcDbText
 10
272.357333
 20
524.223736
 30
0.0
 40
100.0
  1
1.右柱は本図と勝手違いになる。
 41
0.815217
 11
272.357333
 21
524.223736
 31
0.0
100
AcDbText
 73
     1
  0
TEXT
  5
175
100
AcDbEntity
  8
3
  6
Continuous
 62
   214
100
AcDbText
 10
189.070906
 20
718.351262
 30
0.0
 40
120.0
  1
注記
 41
0.833333
 11
189.070906
 21
718.351262
 31
0.0
100
AcDbText
 73
     1
  0
LINE
  5
176
100
AcDbEntity
  8
3
  6
Continuous
 62
   214
100
AcDbLine
 10
189.070906
 20
718.351262
 30
0.0
 11
437.515353
 21
718.351262
 31
0.0
  0
TEXT
  5
177
100
AcDbEntity
  8
3
  6
Continuous
 62
   214
100
AcDbText
 10
272.357333
 20
296.825221
 30
0.0
 40
100.0
  1
　%%c１９は２本まで立上げ可能
 41
0.843373
 11
272.357333
 21
296.825221
 31
0.0
100
AcDbText
 73
     1
  0
TEXT
  5
178
100
AcDbEntity
  8
3
  6
Continuous
 62
   214
100
AcDbText
 10
272.357333
 20
184.75665
 30
0.0
 40
100.0
  1
3.PF管の立上げ部は柱に沿わせ、溝よりはみ出さない事
 41
0.801282
 11
272.357333
 21
184.75665
 31
0.0
100
AcDbText
 73
     1
  0
TEXT
  5
179
100
AcDbEntity
  8
3
  6
Continuous
 62
   214
100
AcDbText
 10
272.357333
 20
405.356331
 30
0.0
 40
100.0
  1
2.CD管は左右に入れ外径%%c２２又は%%c２５は１本以下
 41
0.810811
 11
272.357333
 21
405.356331
 31
0.0
100
AcDbText
 73
     1
  0
TEXT
  5
17A
100
AcDbEntity
  8
113
  6
Continuous
 62
     7
100
AcDbText
 10
6427.617821
 20
1367.345207
 30
0.0
 40
76.8
  1
処　理
 41
0.833333
 11
6427.617821
 21
1367.345207
 31
0.0
100
AcDbText
 73
     1
  0
TEXT
  5
17B
100
AcDbEntity
  8
113
  6
Continuous
 62
     7
100
AcDbText
 10
6391.092723
 20
1701.644279
 30
0.0
 40
76.8
  1
消費電力
 41
0.833333
 11
6391.092723
 21
1701.644279
 31
0.0
100
AcDbText
 73
     1
  0
TEXT
  5
17C
100
AcDbEntity
  8
113
  6
Continuous
 62
     7
100
AcDbText
 10
6431.119986
 20
1799.704911
 30
0.0
 40
76.8
  1
電　源
 41
0.833333
 11
6431.119986
 21
1799.704911
 31
0.0
100
AcDbText
 73
     1
  0
LINE
  5
17D
100
AcDbEntity
  8
113
  6
Continuous
 62
     7
100
AcDbLine
 10
6337.509236
 20
2004.581588
 30
0.0
 11
6337.509236
 21
400.0
 31
0.0
  0
TEXT
  5
17E
100
AcDbEntity
  8
113
  6
Continuous
 62
     7
100
AcDbText
 10
6386.334754
 20
2027.345664
 30
0.0
 40
76.8
  1
仕　様
 41
0.833333
 11
6386.334754
 21
2027.345664
 31
0.0
100
AcDbText
 73
     1
  0
LINE
  5
17F
100
AcDbEntity
  8
113
  6
Continuous
 62
     7
100
AcDbLine
 10
6361.768181
 20
2020.341333
 30
0.0
 11
6635.253745
 21
2020.341333
 31
0.0
  0
LINE
  5
180
100
AcDbEntity
  8
113
  6
Continuous
 62
     7
100
AcDbLine
 10
6752.403184
 20
2004.581588
 30
0.0
 11
6752.403184
 21
400.0
 31
0.0
  0
TEXT
  5
181
100
AcDbEntity
  8
113
  6
Continuous
 62
     7
100
AcDbText
 10
6431.119986
 20
1906.520956
 30
0.0
 40
76.8
  1
形　状
 41
0.833333
 11
6431.119986
 21
1906.520956
 31
0.0
100
AcDbText
 73
     1
  0
TEXT
  5
182
100
AcDbEntity
  8
113
  6
Continuous
 62
     7
100
AcDbText
 10
6427.617821
 20
1608.679168
 30
0.0
 40
76.8
  1
材　質
 41
0.833333
 11
6427.617821
 21
1608.679168
 31
0.0
100
AcDbText
 73
     1
  0
TEXT
  5
183
100
AcDbEntity
  8
113
  6
Continuous
 62
     7
100
AcDbText
 10
6765.411243
 20
1601.40552
 30
0.0
 40
76.8
  1
ポール:アルミ製
 41
0.833333
 11
6765.411243
 21
1601.40552
 31
0.0
100
AcDbText
 73
     1
  0
LINE
  5
184
100
AcDbEntity
  8
113
  6
Continuous
 62
     7
100
AcDbLine
 10
6337.509236
 20
1697.984387
 30
0.0
 11
8163.801226
 21
1697.984387
 31
0.0
  0
LINE
  5
185
100
AcDbEntity
  8
113
  6
Continuous
 62
     7
100
AcDbLine
 10
6337.509236
 20
1897.765543
 30
0.0
 11
8163.801226
 21
1897.765543
 31
0.0
  0
LINE
  5
186
100
AcDbEntity
  8
113
  6
Continuous
 62
     7
100
AcDbLine
 10
6337.509236
 20
2004.581588
 30
0.0
 11
8163.801226
 21
2004.581588
 31
0.0
  0
LINE
  5
187
100
AcDbEntity
  8
113
  6
Continuous
 62
     7
100
AcDbLine
 10
6337.509236
 20
1790.949497
 30
0.0
 11
8163.801226
 21
1790.949497
 31
0.0
  0
TEXT
  5
188
100
AcDbEntity
  8
113
  6
Continuous
 62
     7
100
AcDbText
 10
6763.829083
 20
1364.639378
 30
0.0
 40
76.8
  1
ポール:アルマイト（シルバー色）
 41
0.833333
 11
6763.829083
 21
1364.639378
 31
0.0
100
AcDbText
 73
     1
  0
TEXT
  5
189
100
AcDbEntity
  8
113
  6
Continuous
 62
     7
100
AcDbText
 10
6770.292438
 20
1799.638159
 30
0.0
 40
76.8
  1
AC100V
 41
0.5
 11
6770.292438
 21
1799.638159
 31
0.0
100
AcDbText
 73
     1
  0
TEXT
  5
18A
100
AcDbEntity
  8
113
  6
Continuous
 62
     7
100
AcDbText
 10
6772.444661
 20
1909.026614
 30
0.0
 40
76.8
  1
屋外自立型
 41
0.833333
 11
6772.444661
 21
1909.026614
 31
0.0
100
AcDbText
 73
     1
  0
TEXT
  5
18B
100
AcDbEntity
  8
113
  6
Continuous
 62
     7
100
AcDbText
 10
6769.435148
 20
1700.580283
 30
0.0
 40
76.8
  1
5A%%p10%%%（片面）
 41
0.694444
 11
6769.435148
 21
1700.580283
 31
0.0
100
AcDbText
 73
     1
  0
TEXT
  5
18C
100
AcDbEntity
  8
113
  6
Continuous
 62
     7
100
AcDbText
 10
6767.334699
 20
1510.721622
 30
0.0
 40
76.8
  1
表示部：アルミハニカム
 41
0.833333
 11
6767.334699
 21
1510.721622
 31
0.0
100
AcDbText
 73
     1
  0
TEXT
  5
18D
100
AcDbEntity
  8
113
  6
Continuous
 62
     7
100
AcDbText
 10
6758.804348
 20
1281.226146
 30
0.0
 40
76.8
  1
表示部：屋外専用ｶｯﾃｨﾝｸﾞｼｰﾄ貼付
 41
0.681818
 11
6758.804348
 21
1281.226146
 31
0.0
100
AcDbText
 73
     1
  0
TEXT
  5
18E
100
AcDbEntity
  8
113
  6
Continuous
 62
     7
100
AcDbText
 10
6391.092723
 20
1163.514231
 30
0.0
 40
76.8
  1
温度範囲
 41
0.833333
 11
6391.092723
 21
1163.514231
 31
0.0
100
AcDbText
 73
     1
  0
TEXT
  5
18F
100
AcDbEntity
  8
113
  6
Continuous
 62
     7
100
AcDbText
 10
6772.792357
 20
1154.758817
 30
0.0
 40
76.8
  1
-20～+60℃
 41
0.595238
 11
6772.792357
 21
1154.758817
 31
0.0
100
AcDbText
 73
     1
  0
TEXT
  5
190
100
AcDbEntity
  8
113
  6
Continuous
 62
     7
100
AcDbText
 10
6771.547935
 20
857.421724
 30
0.0
 40
76.8
  1
満車時：”満”点灯（赤色）
 41
0.833333
 11
6771.547935
 21
857.421724
 31
0.0
100
AcDbText
 73
     1
  0
TEXT
  5
191
100
AcDbEntity
  8
113
  6
Continuous
 62
     7
100
AcDbText
 10
6769.9959
 20
952.001363
 30
0.0
 40
76.8
  1
空車時：”空”点灯（緑色）
 41
0.833333
 11
6769.9959
 21
952.001363
 31
0.0
100
AcDbText
 73
     1
  0
TEXT
  5
192
100
AcDbEntity
  8
113
  6
Continuous
 62
     7
100
AcDbText
 10
6771.547935
 20
761.56417
 30
0.0
 40
76.8
  1
混雑時：”混”点灯（橙色）
 41
0.833333
 11
6771.547935
 21
761.56417
 31
0.0
100
AcDbText
 73
     1
  0
LINE
  5
193
100
AcDbEntity
  8
113
  6
Continuous
 62
     7
100
AcDbLine
 10
6337.509236
 20
1252.819449
 30
0.0
 11
8160.0
 21
1252.819449
 31
0.0
  0
LINE
  5
194
100
AcDbEntity
  8
113
  6
Continuous
 62
     7
100
AcDbLine
 10
6337.509236
 20
1146.003403
 30
0.0
 11
8160.0
 21
1146.003403
 31
0.0
  0
LINE
  5
195
100
AcDbEntity
  8
113
  6
Continuous
 62
     7
100
AcDbLine
 10
6337.509236
 20
1456.650425
 30
0.0
 11
8160.0
 21
1456.650425
 31
0.0
  0
TEXT
  5
196
100
AcDbEntity
  8
113
  6
Continuous
 62
     7
100
AcDbText
 10
6354.060159
 20
1056.698185
 30
0.0
 40
76.8
  1
A棟B棟表示
 41
0.735294
 11
6354.060159
 21
1056.698185
 31
0.0
100
AcDbText
 73
     1
  0
TEXT
  5
197
100
AcDbEntity
  8
113
  6
Continuous
 62
     7
100
AcDbText
 10
6364.548417
 20
667.580323
 30
0.0
 40
76.8
  1
屋外ﾌﾞﾛｯｸ
 41
0.608108
 11
6364.548417
 21
667.580323
 31
0.0
100
AcDbText
 73
     1
  0
TEXT
  5
198
100
AcDbEntity
  8
1
  6
Continuous
 62
     7
100
AcDbText
 10
6359.396201
 20
585.183526
 30
0.0
 40
76.8
  1
表示
 41
0.833333
 11
6359.396201
 21
585.183526
 31
0.0
100
AcDbText
 73
     1
  0
LINE
  5
199
100
AcDbEntity
  8
1
  6
Continuous
 62
     7
100
AcDbLine
 10
1515.944801
 20
1648.052113
 30
0.0
 11
2682.34129
 21
1648.052113
 31
0.0
  0
INSERT
  5
1C2
100
AcDbEntity
  8
2
  6
Continuous
 62
   216
100
AcDbBlockReference
  2
*G14
 10
0.0
 20
0.0
 30
0.0
  0
LINE
  5
1C3
100
AcDbEntity
  8
1
  6
Continuous
 62
     7
100
AcDbLine
 10
4997.34129
 20
1648.052113
 30
0.0
 11
3282.34129
 21
1648.052113
 31
0.0
  0
LINE
  5
1C4
100
AcDbEntity
  8
1
  6
Continuous
 62
     7
100
AcDbLine
 10
6206.486839
 20
1648.052113
 30
0.0
 11
5597.34129
 21
1648.052113
 31
0.0
  0
INSERT
  5
1DD
100
AcDbEntity
  8
2
  6
Continuous
 62
   216
100
AcDbBlockReference
  2
*G15
 10
0.0
 20
0.0
 30
0.0
  0
INSERT
  5
217
100
AcDbEntity
  8
2
  6
Continuous
 62
   216
100
AcDbBlockReference
  2
*G16
 10
0.0
 20
0.0
 30
0.0
  0
DIMENSION
  5
222
100
AcDbEntity
  8
1
  6
Continuous
 62
     7
100
AcDbDimension
  2
*D17
 10
4817.964463
 20
2548.052113
 30
0.0
 11
4777.964463
 21
2098.052113
 31
0.0
  1
900
100
AcDbAlignedDimension
 13
4817.964463
 23
2548.052113
 33
0.0
 14
4841.668098
 24
1648.052113
 34
0.0
 50
90.0
100
AcDbRotatedDimension
  0
DIMENSION
  5
22D
100
AcDbEntity
  8
1
  6
Continuous
 62
     7
100
AcDbDimension
  2
*D18
 10
4817.964463
 20
2548.052113
 30
0.0
 11
4777.964463
 21
3298.052113
 31
0.0
  1
Ｈ
100
AcDbAlignedDimension
 13
4831.771942
 23
2548.052113
 33
0.0
 14
4817.964463
 24
4048.052113
 34
0.0
 50
90.0
100
AcDbRotatedDimension
  0
LINE
  5
22E
100
AcDbEntity
  8
1
  6
Continuous
 62
     7
100
AcDbLine
 10
2679.84129
 20
1668.052113
 30
0.0
 11
2917.34129
 21
1668.052113
 31
0.0
  0
LINE
  5
22F
100
AcDbEntity
  8
1
  6
Continuous
 62
     7
100
AcDbLine
 10
3042.34129
 20
1668.052113
 30
0.0
 11
3279.84129
 21
1668.052113
 31
0.0
  0
DIMENSION
  5
239
100
AcDbEntity
  8
1
  6
Continuous
 62
     7
100
AcDbDimension
  2
*D19
 10
3042.34129
 20
2130.740034
 30
0.0
 11
2588.736151
 21
2170.740034
 31
0.0
  1
支柱外径φ125
100
AcDbAlignedDimension
 13
3042.34129
 23
2130.740034
 33
0.0
 14
2917.34129
 24
2130.740034
 34
0.0
100
AcDbRotatedDimension
  0
LINE
  5
23A
100
AcDbEntity
  8
1
  6
Continuous
 62
     7
100
AcDbLine
 10
2917.34129
 20
1048.052113
 30
0.0
 11
3042.34129
 21
1048.052113
 31
0.0
  0
LINE
  5
23B
100
AcDbEntity
  8
1
  6
Continuous
 62
     7
100
AcDbLine
 10
2679.84129
 20
1668.052113
 30
0.0
 11
2679.84129
 21
948.052113
 31
0.0
  0
LINE
  5
23C
100
AcDbEntity
  8
1
  6
Continuous
 62
     7
100
AcDbLine
 10
3279.84129
 20
948.052113
 30
0.0
 11
3279.84129
 21
1668.052113
 31
0.0
  0
LINE
  5
23D
100
AcDbEntity
  8
1
  6
Continuous
 62
     7
100
AcDbLine
 10
2679.84129
 20
948.052113
 30
0.0
 11
3279.84129
 21
948.052113
 31
0.0
  0
INSERT
  5
29D
100
AcDbEntity
  8
2
  6
Continuous
 62
   216
100
AcDbBlockReference
  2
*G20
 10
0.0
 20
0.0
 30
0.0
  0
DIMENSION
  5
2A9
100
AcDbEntity
  8
1
  6
Continuous
 62
     7
100
AcDbDimension
  2
*D21
 10
3279.84129
 20
698.586568
 30
0.0
 11
2979.84129
 21
738.586568
 31
0.0
  1
基礎断面□600
100
AcDbAlignedDimension
 13
3279.84129
 23
938.052113
 33
0.0
 14
2679.84129
 24
938.052113
 34
0.0
100
AcDbRotatedDimension
  0
DIMENSION
  5
2B5
100
AcDbEntity
  8
1
  6
Continuous
 62
     7
100
AcDbDimension
  2
*D22
 10
2540.814899
 20
1668.052113
 30
0.0
 11
2500.814899
 21
1358.052113
 31
0.0
  1
支柱埋込深さ620
100
AcDbAlignedDimension
 13
2669.84129
 23
1668.052113
 33
0.0
 14
2907.34129
 24
1048.052113
 34
0.0
 50
90.0
100
AcDbRotatedDimension
  0
LINE
  5
2B6
100
AcDbEntity
  8
1
  6
Continuous
 62
     7
100
AcDbLine
 10
3042.34129
 20
4053.052113
 30
0.0
 11
3042.34129
 21
4048.052113
 31
0.0
  0
LINE
  5
2B7
100
AcDbEntity
  8
1
  6
Continuous
 62
     7
100
AcDbLine
 10
2917.34129
 20
4048.052113
 30
0.0
 11
2917.34129
 21
4053.052113
 31
0.0
  0
LINE
  5
2B8
100
AcDbEntity
  8
1
  6
Continuous
 62
     7
100
AcDbLine
 10
2917.34129
 20
4053.052113
 30
0.0
 11
3042.34129
 21
4053.052113
 31
0.0
  0
LINE
  5
2B9
100
AcDbEntity
  8
1
  6
Continuous
 62
     7
100
AcDbLine
 10
2917.34129
 20
4048.052113
 30
0.0
 11
3042.34129
 21
4048.052113
 31
0.0
  0
LINE
  5
2BA
100
AcDbEntity
  8
1
  6
Continuous
 62
     7
100
AcDbLine
 10
3012.34129
 20
2548.052113
 30
0.0
 11
3012.34129
 21
4048.052113
 31
0.0
  0
LINE
  5
2BB
100
AcDbEntity
  8
1
  6
Continuous
 62
     7
100
AcDbLine
 10
2917.34129
 20
1048.052113
 30
0.0
 11
2917.34129
 21
4048.052113
 31
0.0
  0
LINE
  5
2BC
100
AcDbEntity
  8
1
  6
CENTER
 62
     7
100
AcDbLine
 10
2979.84129
 20
4077.663309
 30
0.0
 11
2979.84129
 21
948.052113
 31
0.0
  0
LINE
  5
2BD
100
AcDbEntity
  8
1
  6
Continuous
 62
     7
100
AcDbLine
 10
3042.34129
 20
2548.052113
 30
0.0
 11
3042.34129
 21
1048.052113
 31
0.0
  0
LINE
  5
2BE
100
AcDbEntity
  8
1
  6
Continuous
 62
     7
100
AcDbLine
 10
5599.84129
 20
1668.052113
 30
0.0
 11
5362.34129
 21
1668.052113
 31
0.0
  0
LINE
  5
2BF
100
AcDbEntity
  8
1
  6
Continuous
 62
     7
100
AcDbLine
 10
5237.34129
 20
1668.052113
 30
0.0
 11
4999.84129
 21
1668.052113
 31
0.0
  0
LINE
  5
2C0
100
AcDbEntity
  8
1
  6
Continuous
 62
     7
100
AcDbLine
 10
5541.831078
 20
1383.22834
 30
0.0
 11
5587.101842
 21
1362.001991
 31
0.0
  0
LINE
  5
2C1
100
AcDbEntity
  8
1
  6
Continuous
 62
     7
100
AcDbLine
 10
5541.831078
 20
1383.22834
 30
0.0
 11
5570.423536
 21
1342.2104
 31
0.0
  0
LINE
  5
2C2
100
AcDbEntity
  8
1
  6
Continuous
 62
     7
100
AcDbLine
 10
5587.101842
 20
1362.001991
 30
0.0
 11
5570.423536
 21
1342.2104
 31
0.0
  0
LINE
  5
2C3
100
AcDbEntity
  8
1
  6
Continuous
 62
     7
100
AcDbLine
 10
5551.063981
 20
1375.447804
 30
0.0
 11
5573.699363
 21
1364.83463
 31
0.0
  0
LINE
  5
2C4
100
AcDbEntity
  8
1
  6
Continuous
 62
     7
100
AcDbLine
 10
5551.063981
 20
1375.447804
 30
0.0
 11
5565.36021
 21
1354.938834
 31
0.0
  0
LINE
  5
2C5
100
AcDbEntity
  8
1
  6
Continuous
 62
     7
100
AcDbLine
 10
5573.699363
 20
1364.83463
 30
0.0
 11
5565.36021
 21
1354.938834
 31
0.0
  0
POLYLINE
  5
2C6
100
AcDbEntity
  8
1
  6
Continuous
 62
     7
100
AcDb2dPolyline
 66
     1
 10
0.0
 20
0.0
 30
0.0
  0
VERTEX
  5
2C7
100
AcDbEntity
  8
1
  6
Continuous
 62
     7
100
AcDbVertex
100
AcDb2dVertex
 10
5541.831078
 20
1383.22834
 30
0.0
  0
VERTEX
  5
2C8
100
AcDbEntity
  8
1
  6
Continuous
 62
     7
100
AcDbVertex
100
AcDb2dVertex
 10
5753.717641
 20
1204.672247
 30
0.0
  0
VERTEX
  5
2C9
100
AcDbEntity
  8
1
  6
Continuous
 62
     7
100
AcDbVertex
100
AcDb2dVertex
 10
6153.717641
 20
1204.672247
 30
0.0
  0
SEQEND
  5
2CA
100
AcDbEntity
  8
1
  6
Continuous
 62
     7
  0
TEXT
  5
2CB
100
AcDbEntity
  8
1
  6
Continuous
 62
     7
100
AcDbText
 10
5753.717641
 20
1204.672247
 30
0.0
 40
80.0
  1
基礎ｺﾝｸﾘｰﾄ
 41
0.595238
 11
5753.717641
 21
1204.672247
 31
0.0
100
AcDbText
 73
     1
  0
LINE
  5
2CC
100
AcDbEntity
  8
1
  6
Continuous
 62
     7
100
AcDbLine
 10
5362.34129
 20
1048.052113
 30
0.0
 11
5237.34129
 21
1048.052113
 31
0.0
  0
LINE
  5
2CD
100
AcDbEntity
  8
1
  6
Continuous
 62
     7
100
AcDbLine
 10
5599.84129
 20
1668.052113
 30
0.0
 11
5599.84129
 21
948.052113
 31
0.0
  0
LINE
  5
2CE
100
AcDbEntity
  8
1
  6
Continuous
 62
     7
100
AcDbLine
 10
4999.84129
 20
948.052113
 30
0.0
 11
4999.84129
 21
1668.052113
 31
0.0
  0
LINE
  5
2CF
100
AcDbEntity
  8
1
  6
Continuous
 62
     7
100
AcDbLine
 10
5599.84129
 20
948.052113
 30
0.0
 11
4999.84129
 21
948.052113
 31
0.0
  0
INSERT
  5
331
100
AcDbEntity
  8
2
  6
Continuous
 62
   216
100
AcDbBlockReference
  2
*G23
 10
0.0
 20
0.0
 30
0.0
  0
LINE
  5
332
100
AcDbEntity
  8
1
  6
Continuous
 62
     7
100
AcDbLine
 10
5362.34129
 20
1668.052113
 30
0.0
 11
5377.135082
 21
1715.813433
 31
0.0
  0
LINE
  5
333
100
AcDbEntity
  8
1
  6
Continuous
 62
     7
100
AcDbLine
 10
5362.34129
 20
1668.052113
 30
0.0
 11
5399.03375
 21
1702.017733
 31
0.0
  0
LINE
  5
334
100
AcDbEntity
  8
1
  6
Continuous
 62
     7
100
AcDbLine
 10
5377.135082
 20
1715.813433
 30
0.0
 11
5399.03375
 21
1702.017733
 31
0.0
  0
LINE
  5
335
100
AcDbEntity
  8
1
  6
Continuous
 62
     7
100
AcDbLine
 10
5368.777072
 20
1678.26798
 30
0.0
 11
5376.173968
 21
1702.14864
 31
0.0
  0
LINE
  5
336
100
AcDbEntity
  8
1
  6
Continuous
 62
     7
100
AcDbLine
 10
5368.777072
 20
1678.26798
 30
0.0
 11
5387.123302
 21
1695.250791
 31
0.0
  0
LINE
  5
337
100
AcDbEntity
  8
1
  6
Continuous
 62
     7
100
AcDbLine
 10
5376.173968
 20
1702.14864
 30
0.0
 11
5387.123302
 21
1695.250791
 31
0.0
  0
POLYLINE
  5
338
100
AcDbEntity
  8
1
  6
Continuous
 62
     7
100
AcDb2dPolyline
 66
     1
 10
0.0
 20
0.0
 30
0.0
  0
VERTEX
  5
339
100
AcDbEntity
  8
1
  6
Continuous
 62
     7
100
AcDbVertex
100
AcDb2dVertex
 10
5362.34129
 20
1668.052113
 30
0.0
  0
VERTEX
  5
33A
100
AcDbEntity
  8
1
  6
Continuous
 62
     7
100
AcDbVertex
100
AcDb2dVertex
 10
5522.602544
 20
1922.443561
 30
0.0
  0
VERTEX
  5
33B
100
AcDbEntity
  8
1
  6
Continuous
 62
     7
100
AcDbVertex
100
AcDb2dVertex
 10
5842.602544
 20
1922.443561
 30
0.0
  0
SEQEND
  5
33C
100
AcDbEntity
  8
1
  6
Continuous
 62
     7
  0
TEXT
  5
33D
100
AcDbEntity
  8
1
  6
Continuous
 62
     7
100
AcDbText
 10
5522.602544
 20
1922.443561
 30
0.0
 40
80.0
  1
ﾓﾙﾀﾙ充填
 41
0.625
 11
5522.602544
 21
1922.443561
 31
0.0
100
AcDbText
 73
     1
  0
LINE
  5
33E
100
AcDbEntity
  8
1
  6
Continuous
 62
     7
100
AcDbLine
 10
5237.34129
 20
4053.052113
 30
0.0
 11
5237.34129
 21
4048.052113
 31
0.0
  0
LINE
  5
33F
100
AcDbEntity
  8
1
  6
Continuous
 62
     7
100
AcDbLine
 10
5362.34129
 20
4048.052113
 30
0.0
 11
5362.34129
 21
4053.052113
 31
0.0
  0
LINE
  5
340
100
AcDbEntity
  8
1
  6
Continuous
 62
     7
100
AcDbLine
 10
5362.34129
 20
4053.052113
 30
0.0
 11
5237.34129
 21
4053.052113
 31
0.0
  0
LINE
  5
341
100
AcDbEntity
  8
1
  6
Continuous
 62
     7
100
AcDbLine
 10
5362.34129
 20
4048.052113
 30
0.0
 11
5237.34129
 21
4048.052113
 31
0.0
  0
LINE
  5
342
100
AcDbEntity
  8
1
  6
Continuous
 62
     7
100
AcDbLine
 10
5267.34129
 20
2548.052113
 30
0.0
 11
5267.34129
 21
4048.052113
 31
0.0
  0
LINE
  5
343
100
AcDbEntity
  8
1
  6
Continuous
 62
     7
100
AcDbLine
 10
5362.34129
 20
1048.052113
 30
0.0
 11
5362.34129
 21
4048.052113
 31
0.0
  0
LINE
  5
344
100
AcDbEntity
  8
1
  6
CENTER
 62
     7
100
AcDbLine
 10
5299.84129
 20
4077.663309
 30
0.0
 11
5299.84129
 21
948.052113
 31
0.0
  0
LINE
  5
345
100
AcDbEntity
  8
1
  6
Continuous
 62
     7
100
AcDbLine
 10
5237.34129
 20
2548.052113
 30
0.0
 11
5237.34129
 21
1048.052113
 31
0.0
  0
LINE
  5
346
100
AcDbEntity
  8
1
  6
Continuous
 62
     7
100
AcDbLine
 10
3042.34129
 20
4048.052113
 30
0.0
 11
5237.34129
 21
4048.052113
 31
0.0
  0
LINE
  5
347
100
AcDbEntity
  8
1
  6
Continuous
 62
     7
100
AcDbLine
 10
3012.34129
 20
2548.052113
 30
0.0
 11
5267.34129
 21
2548.052113
 31
0.0
  0
DIMENSION
  5
352
100
AcDbEntity
  8
1
  6
Continuous
 62
     7
100
AcDbDimension
  2
*D24
 10
3012.34129
 20
2863.093088
 30
0.0
 11
4139.84129
 21
2903.093088
 31
0.0
  1
Ｗ
100
AcDbAlignedDimension
 13
3012.34129
 23
2891.746542
 33
0.0
 14
5267.34129
 24
2863.093088
 34
0.0
100
AcDbRotatedDimension
  0
LINE
  5
353
100
AcDbEntity
  8
1
  6
Continuous
 62
     7
100
AcDbLine
 10
3079.84129
 20
1038.052113
 30
0.0
 11
3079.84129
 21
1668.052113
 31
0.0
  0
LINE
  5
354
100
AcDbEntity
  8
1
  6
Continuous
 62
     7
100
AcDbLine
 10
2879.84129
 20
1668.052113
 30
0.0
 11
2879.84129
 21
1038.052113
 31
0.0
  0
DIMENSION
  5
360
100
AcDbEntity
  8
1
  6
Continuous
 62
     7
100
AcDbDimension
  2
*D25
 10
2879.84129
 20
1902.052113
 30
0.0
 11
2687.294422
 21
1942.052113
 31
0.0
  1
φ200～
100
AcDbAlignedDimension
 13
2879.84129
 23
1678.052113
 33
0.0
 14
3079.84129
 24
1678.052113
 34
0.0
100
AcDbRotatedDimension
  0
LINE
  5
361
100
AcDbEntity
  8
1
  6
Continuous
 62
     7
100
AcDbLine
 10
2879.84129
 20
1038.052113
 30
0.0
 11
3079.84129
 21
1038.052113
 31
0.0
  0
LINE
  5
362
100
AcDbEntity
  8
1
  6
Continuous
 62
     7
100
AcDbLine
 10
5399.84129
 20
1668.052113
 30
0.0
 11
5399.84129
 21
1038.052113
 31
0.0
  0
LINE
  5
363
100
AcDbEntity
  8
1
  6
Continuous
 62
     7
100
AcDbLine
 10
5199.84129
 20
1038.052113
 30
0.0
 11
5199.84129
 21
1668.052113
 31
0.0
  0
LINE
  5
364
100
AcDbEntity
  8
1
  6
Continuous
 62
     7
100
AcDbLine
 10
5399.84129
 20
1038.052113
 30
0.0
 11
5199.84129
 21
1038.052113
 31
0.0
  0
INSERT
  5
371
100
AcDbEntity
  8
1
  6
Continuous
 62
     7
100
AcDbBlockReference
  2
*G26
 10
0.0
 20
0.0
 30
0.0
  0
INSERT
  5
37E
100
AcDbEntity
  8
1
  6
Continuous
 62
     7
100
AcDbBlockReference
  2
*G27
 10
0.0
 20
0.0
 30
0.0
  0
TEXT
  5
37F
100
AcDbEntity
  8
1
  6
Continuous
 62
     7
100
AcDbText
 10
4471.580496
 20
1176.384764
 30
0.0
 40
100.0
  1
配管立上げ
 41
0.833333
 11
4471.580496
 21
1176.384764
 31
0.0
100
AcDbText
 73
     1
  0
TEXT
  5
380
100
AcDbEntity
  8
1
  6
Continuous
 62
     7
100
AcDbText
 10
3295.011609
 20
1176.384764
 30
0.0
 40
100.0
  1
配管立上げ
 41
0.833333
 11
3295.011609
 21
1176.384764
 31
0.0
100
AcDbText
 73
     1
  0
DIMENSION
  5
38C
100
AcDbEntity
  8
1
  6
Continuous
 62
     7
100
AcDbDimension
  2
*D28
 10
3985.738689
 20
948.052113
 30
0.0
 11
3945.738689
 21
1298.052113
 31
0.0
  1
基礎地中深さ700
100
AcDbAlignedDimension
 13
3289.84129
 23
948.052113
 33
0.0
 14
3292.34129
 24
1648.052113
 34
0.0
 50
90.0
100
AcDbRotatedDimension
  0
DIMENSION
  5
398
100
AcDbEntity
  8
1
  6
Continuous
 62
     7
100
AcDbDimension
  2
*D29
 10
3985.738689
 20
1648.052113
 30
0.0
 11
3945.738689
 21
1988.041864
 31
0.0
  1
基礎地上高さ20
100
AcDbAlignedDimension
 13
3292.34129
 23
1648.052113
 33
0.0
 14
3289.84129
 24
1668.052113
 34
0.0
 50
90.0
100
AcDbRotatedDimension
  0
DIMENSION
  5
3A4
100
AcDbEntity
  8
1
  6
Continuous
 62
     7
100
AcDbDimension
  2
*D30
 10
5299.84129
 20
4208.364126
 30
0.0
 11
4139.84129
 21
4248.364126
 31
0.0
  1
P 柱中心
100
AcDbAlignedDimension
 13
5299.84129
 23
4087.663309
 33
0.0
 14
2979.84129
 24
4087.663309
 34
0.0
100
AcDbRotatedDimension
  0
TEXT
  5
3A5
100
AcDbEntity
  8
1
  6
Continuous
 62
     7
100
AcDbText
 10
6070.083174
 20
1667.032799
 30
0.0
 40
80.0
  1
ＧＬ
 41
0.833333
 11
6070.083174
 21
1667.032799
 31
0.0
100
AcDbText
 73
     1
  0
LINE
  5
3A6
100
AcDbEntity
  8
1
  6
Continuous
 62
     7
100
AcDbLine
 10
5895.841639
 20
3052.409876
 30
0.0
 11
5818.567573
 21
3031.704353
 31
0.0
  0
LINE
  5
3A7
100
AcDbEntity
  8
1
  6
Continuous
 62
     7
100
AcDbLine
 10
5895.841639
 20
3052.409876
 30
0.0
 11
5818.567573
 21
3073.1154
 31
0.0
  0
LINE
  5
3A8
100
AcDbEntity
  8
1
  6
Continuous
 62
     7
100
AcDbLine
 10
5818.567573
 20
3031.704353
 30
0.0
 11
5818.567573
 21
3073.1154
 31
0.0
  0
LINE
  5
3A9
100
AcDbEntity
  8
1
  6
Continuous
 62
     7
100
AcDbLine
 10
5876.523123
 20
3052.409876
 30
0.0
 11
5837.88609
 21
3042.057115
 31
0.0
  0
LINE
  5
3AA
100
AcDbEntity
  8
1
  6
Continuous
 62
     7
100
AcDbLine
 10
5876.523123
 20
3052.409876
 30
0.0
 11
5837.88609
 21
3062.762638
 31
0.0
  0
LINE
  5
3AB
100
AcDbEntity
  8
1
  6
Continuous
 62
     7
100
AcDbLine
 10
5837.88609
 20
3042.057115
 30
0.0
 11
5837.88609
 21
3062.762638
 31
0.0
  0
POLYLINE
  5
3AC
100
AcDbEntity
  8
1
  6
Continuous
 62
     7
100
AcDb2dPolyline
 66
     1
 10
0.0
 20
0.0
 30
0.0
  0
VERTEX
  5
3AD
100
AcDbEntity
  8
1
  6
Continuous
 62
     7
100
AcDbVertex
100
AcDb2dVertex
 10
5895.841639
 20
3052.409876
 30
0.0
  0
VERTEX
  5
3AE
100
AcDbEntity
  8
1
  6
Continuous
 62
     7
100
AcDbVertex
100
AcDb2dVertex
 10
5692.8781
 20
3052.409876
 30
0.0
  0
SEQEND
  5
3AF
100
AcDbEntity
  8
1
  6
Continuous
 62
     7
  0
ARC
  5
3B0
100
AcDbEntity
  8
1
  6
Continuous
 62
     7
100
AcDbCircle
 10
5279.84129
 20
4906.234825
 30
0.0
 40
90.0
100
AcDbArc
 50
-150.0
 51
162.542397
  0
INSERT
  5
3B9
100
AcDbEntity
  8
1
  6
Continuous
 62
     7
100
AcDbBlockReference
  2
*G31
 10
0.0
 20
0.0
 30
0.0
  0
LINE
  5
3BA
100
AcDbEntity
  8
1
  6
Continuous
 62
     7
100
AcDbLine
 10
3036.20839
 20
4933.234825
 30
0.0
 11
5243.47419
 21
4933.234825
 31
0.0
  0
LINE
  5
3BB
100
AcDbEntity
  8
1
  6
Continuous
 62
     7
100
AcDbLine
 10
5256.467911
 20
4861.234825
 30
0.0
 11
3023.214669
 21
4861.234825
 31
0.0
  0
ARC
  5
3BC
100
AcDbEntity
  8
1
  6
Continuous
 62
     7
100
AcDbCircle
 10
2999.84129
 20
4906.234825
 30
0.0
 40
90.0
100
AcDbArc
 50
17.457603
 51
-30.0
  0
INSERT
  5
3C5
100
AcDbEntity
  8
1
  6
Continuous
 62
     7
100
AcDbBlockReference
  2
*G32
 10
0.0
 20
0.0
 30
0.0
  0
DIMENSION
  5
3D1
100
AcDbEntity
  8
1
  6
Continuous
 62
     7
100
AcDbDimension
  2
*D33
 10
5780.409959
 20
4861.234825
 30
0.0
 11
5740.409959
 21
5014.978563
 31
0.0
  1
72
100
AcDbAlignedDimension
 13
5266.467911
 23
4861.234825
 33
0.0
 14
5253.47419
 24
4933.234825
 34
0.0
 50
90.0
100
AcDbRotatedDimension
  0
INSERT
  5
407
100
AcDbEntity
  8
1
  6
Continuous
 62
     7
100
AcDbBlockReference
  2
*G34
 10
0.0
 20
0.0
 30
0.0
  0
TEXT
  5
408
100
AcDbEntity
  8
1
  6
Continuous
 62
     7
100
AcDbText
 10
6513.488571
 20
171.715569
 30
0.0
 40
80.0
  1
基礎寸法図
 50
-0.016975
 41
0.833333
 11
6513.488571
 21
171.715569
 31
0.0
100
AcDbText
 73
     1
  0
INSERT
  5
411
100
AcDbEntity
  8
1
  6
Continuous
 62
     7
100
AcDbBlockReference
  2
*G38
 10
0.0
 20
0.0
 30
0.0
  0
LINE
  5
412
100
AcDbEntity
  8
3
  6
Continuous
 62
   214
100
AcDbLine
 10
1143.702513
 20
3982.166106
 30
0.0
 11
1107.751145
 21
3910.699337
 31
0.0
  0
LINE
  5
413
100
AcDbEntity
  8
3
  6
Continuous
 62
   214
100
AcDbLine
 10
1143.702513
 20
3982.166106
 30
0.0
 11
1076.83433
 21
3938.249753
 31
0.0
  0
POLYLINE
  5
414
100
AcDbEntity
  8
3
  6
Continuous
 62
   214
100
AcDb2dPolyline
 66
     1
 10
0.0
 20
0.0
 30
0.0
  0
VERTEX
  5
415
100
AcDbEntity
  8
3
  6
Continuous
 62
   214
100
AcDbVertex
100
AcDb2dVertex
 10
1143.702513
 20
3982.166106
 30
0.0
  0
VERTEX
  5
416
100
AcDbEntity
  8
3
  6
Continuous
 62
   214
100
AcDbVertex
100
AcDb2dVertex
 10
705.496182
 20
3490.415129
 30
0.0
  0
VERTEX
  5
417
100
AcDbEntity
  8
3
  6
Continuous
 62
   214
100
AcDbVertex
100
AcDb2dVertex
 10
305.496182
 20
3490.415129
 30
0.0
  0
SEQEND
  5
418
100
AcDbEntity
  8
3
  6
Continuous
 62
   214
  0
TEXT
  5
419
100
AcDbEntity
  8
3
  6
Continuous
 62
   214
100
AcDbText
 10
305.496182
 20
3490.415129
 30
0.0
 40
80.0
  1
配線カバー
 41
0.833333
 11
305.496182
 21
3490.415129
 31
0.0
100
AcDbText
 73
     1
  0
TEXT
  5
41A
100
AcDbEntity
  8
113
  6
Continuous
 62
     7
100
AcDbText
 10
6770.997736
 20
660.234365
 30
0.0
 40
76.8
  1
照光部[□34mm]２色発光LED
 41
0.672043
 11
6770.997736
 21
660.234365
 31
0.0
100
AcDbText
 73
     1
  0
TEXT
  5
41B
100
AcDbEntity
  8
113
  6
Continuous
 62
     7
100
AcDbText
 10
6769.726903
 20
1049.352228
 30
0.0
 40
76.8
  1
照光部[□160mm]２色発光文字LED
 41
0.681818
 11
6769.726903
 21
1049.352228
 31
0.0
100
AcDbText
 73
     1
  0
TEXT
  5
41C
100
AcDbEntity
  8
113
  6
Continuous
 62
     7
100
AcDbText
 10
6774.150316
 20
572.155778
 30
0.0
 40
76.8
  1
空車時：緑色点灯
 41
0.833333
 11
6774.150316
 21
572.155778
 31
0.0
100
AcDbText
 73
     1
  0
TEXT
  5
41D
100
AcDbEntity
  8
113
  6
Continuous
 62
     7
100
AcDbText
 10
6775.70235
 20
477.576139
 30
0.0
 40
76.8
  1
満車時：赤色点灯
 41
0.833333
 11
6775.70235
 21
477.576139
 31
0.0
100
AcDbText
 73
     1
  0
ENDSEC
  0
SECTION
  2
OBJECTS
  0
DICTIONARY
  5
19
100
AcDbDictionary
280
     0
281
     1
  3
ACAD_GROUP
350
1A
  3
ACAD_MLINESTYLE
350
1B
  3
ACAD_LAYOUT
350
1E
  3
ACAD_PLOTSETTINGS
350
22
  3
ACAD_PLOTSTYLENAME
350
1F
  3
ACAD_WIPEOUT_VARS
350
23
  0
DICTIONARY
  5
1A
102
{ACAD_REACTORS
330
19
102
}
100
AcDbDictionary
280
     0
281
     1
  0
DICTIONARY
  5
1B
102
{ACAD_REACTORS
330
19
102
}
100
AcDbDictionary
280
     0
281
     1
  3
Standard
350
1C
  0
MLINESTYLE
  5
1C
102
{ACAD_REACTORS
330
1B
102
}
100
AcDbMlineStyle
  2
Standard
 70
     0
  3

 62
     0
 51
90.0
 52
90.0
 71
     2
 49
0.5
 62
   256
  6
BYLAYER
 49
-0.5
 62
   256
  6
BYLAYER
  0
ACDBDICTIONARYWDFLT
  5
1F
102
{ACAD_REACTORS
330
19
102
}
100
AcDbDictionary
281
     1
  3
Normal
350
1D
100
AcDbDictionaryWithDefault
340
1D
  0
ACDBPLACEHOLDER
  5
1D
102
{ACAD_REACTORS
330
1F
102
}
  0
LAYOUT
  5
20
102
{ACAD_REACTORS
330
1E
102
}
100
AcDbPlotSettings
  1

  2

  4

  6

 40
0.0
 41
0.0
 42
0.0
 43
0.0
 44
0.0
 45
0.0
 46
0.0
 47
0.0
 48
0.0
 49
0.0
140
0.0
141
0.0
142
1.0
143
1.0
 70
     0
 72
     0
 73
     0
 74
     0
  7

 75
     0
147
1.0
148
0.0
149
0.0
100
AcDbLayout
  1
Model
 70
     0
 71
     0
 10
0.0
 20
0.0
 11
0.0
 21
0.0
 12
0.0
 22
0.0
 32
0.0
 14
0.0
 24
0.0
 34
0.0
 15
0.0
 25
0.0
 35
0.0
146
0.0
 13
0.0
 23
0.0
 33
0.0
 16
0.0
 26
0.0
 36
0.0
 17
0.0
 27
0.0
 37
0.0
 76
     0
330
A
331
0
345
0
346
0
  0
LAYOUT
  5
21
102
{ACAD_REACTORS
330
1E
102
}
100
AcDbPlotSettings
  1

  2

  4

  6

 40
0.0
 41
0.0
 42
0.0
 43
0.0
 44
0.0
 45
0.0
 46
0.0
 47
0.0
 48
0.0
 49
0.0
140
0.0
141
0.0
142
1.0
143
1.0
 70
     0
 72
     0
 73
     0
 74
     0
  7

 75
     0
147
1.0
148
0.0
149
0.0
100
AcDbLayout
  1
Layout1
 70
     0
 71
     0
 10
0.0
 20
0.0
 11
0.0
 21
0.0
 12
0.0
 22
0.0
 32
0.0
 14
0.0
 24
0.0
 34
0.0
 15
0.0
 25
0.0
 35
0.0
146
0.0
 13
0.0
 23
0.0
 33
0.0
 16
0.0
 26
0.0
 36
0.0
 17
0.0
 27
0.0
 37
0.0
 76
     0
330
B
331
0
345
0
346
0
  0
DICTIONARY
  5
1E
102
{ACAD_REACTORS
330
19
102
}
100
AcDbDictionary
280
     0
281
     1
  3
Layout1
350
21
  3
Model
350
20
  0
DICTIONARY
  5
22
102
{ACAD_REACTORS
330
19
102
}
100
AcDbDictionary
280
     0
281
     1
  0
WIPEOUTVARIABLES
  5
23
100
AcDbWipeoutVariables
 70
     1
  0
ENDSEC
  0
EOF
