  0
SECTION
  2
HEADER
  9
$ACADVER
  1
AC1004
  9
$INSBASE
 10
0.000000
 20
0.000000
  9
$EXTMIN
 10
0.000000
 20
0.000000
  9
$EXTMAX
 10
2970.000000
 20
2100.000000
  9
$LIMMIN
 10
0.000000
 20
0.000000
  9
$LIMMAX
 10
2970.000000
 20
2100.000000
  9
$VIEWCTR
 10
1485.000000
 20
1050.000000
  9
$VIEWSIZE
 40
2100.000000
  9
$PEXTMIN
 10
0.000000
 20
0.000000
 30
0.000000
  9
$PEXTMAX
 10
297.000000
 20
210.000000
 30
0.000000
  9
$SNAPMODE
 70
     0
  9
$SNAPUNIT
 10
1.000000
 20
1.000000
  9
$SNAPBASE
 10
0.000000
 20
0.000000
  9
$SNAPANG
 50
0.000000
  9
$SNAPISOPAIR
 70
     0
  9
$SNAPSTYLE
 70
     0
  9
$GRIDMODE
 70
     0
  9
$GRIDUNIT
 10
0.000000
 20
0.000000
  9
$ORTHOMODE
 70
     0
  9
$REGENMODE
 70
     1
  9
$FILLMODE
 70
     1
  9
$QTEXTMODE
 70
     0
  9
$DRAGMODE
 70
     2
  9
$LTSCALE
 40
2.500000
  9
$OSMODE
 70
     0
  9
$ATTMODE
 70
     1
  9
$TEXTSIZE
 40
50.000000
  9
$TRACEWID
 40
0.050000
  9
$TEXTSTYLE
  7
STANDARD
  9
$CLAYER
  8
0
  9
$CELTYPE
  6
BYLAYER
  9
$CECOLOR
 62
   256
  9
$DIMSCALE
 40
1.000000
  9
$DIMASZ
 40
1.000000
  9
$DIMEXO
 40
0.000000
  9
$DIMDLI
 40
0.500000
  9
$DIMRND
 40
0.000000
  9
$DIMDLE
 40
0.000000
  9
$DIMEXE
 40
0.000000
  9
$DIMTP
 40
0.000000
  9
$DIMTM
 40
0.000000
  9
$DIMTXT
 40
4.000000
  9
$DIMCEN
 40
0.000000
  9
$DIMTSZ
 40
0.000000
  9
$DIMTOL
 70
     0
  9
$DIMLIM
 70
     0
  9
$DIMTIH
 70
     1
  9
$DIMTOH
 70
     1
  9
$DIMSE1
 70
     0
  9
$DIMSE2
 70
     0
  9
$DIMTAD
 70
     0
  9
$DIMZIN
 70
     0
  9
$DIMBLK
  1

  9
$DIMASO
 70
     0
  9
$DIMSHO
 70
     0
  9
$DIMPOST
  1

  9
$DIMAPOST
  1

  9
$DIMALT
 70
     0
  9
$DIMALTD
 70
     0
  9
$DIMALTF
 40
25.400000
  9
$DIMLFAC
 40
1.000000
  9
$DIMTOFL
 70
     0
  9
$DIMTVP
 40
0.000000
  9
$DIMTIX
 70
     0
  9
$DIMSOXD
 70
     0
  9
$DIMSAH
 70
     0
  9
$DIMBLKL
  1

  9
$DIMBLKR
  1

  9
$LUNITS
 70
     2
  9
$LUPREC
 70
     2
  9
$AXISMODE
 70
     0
  9
$AXISUNIT
 10
1.000000
 20
1.000000
  9
$SKETCHINC
 40
0.000000
  9
$FILLETRAD
 40
0.000000
  9
$AUNITS
 70
     1
  9
$AUPREC
 70
     2
  9
$MENU
  1
ACAD
  9
$ELEVATION
 40
0.000000
  9
$THICKNESS
 40
0.000000
  9
$VIEWDIR
 10
0.000000
 20
0.000000
 30
1.000000
  9
$LIMCHECK
 70
     1
  9
$BLIPMODE
 70
     1
  9
$CHAMFERA
 40
0.000000
  9
$CHAMFERB
 40
0.000000
  9
$FASTZOOM
 70
     1
  9
$SKPOLY
 70
     0
  9
$TDCREATE
 40
0.000000
  9
$TDUPDATE
 40
0.000000
  9
$TDINDWG
 40
0.000000
  9
$TDUSRTIMER
 40
0.000000
  9
$USRTIMER
 70
     1
  9
$ANGBASE
 50
0.000000
  9
$ANGDIR
 70
     0
  9
$PDMODE
 70
     0
  9
$PDSIZE
 40
0.000000
  9
$PLINEWID
 40
0.000000
  9
$COORDS
 70
     2
  9
$USERI1
 70
     0
  9
$USERI2
 70
     0
  9
$USERI3
 70
     0
  9
$USERI4
 70
     0
  9
$USERI5
 70
     0
  9
$USERR1
 40
0.000000
  9
$USERR2
 40
0.000000
  9
$USERR3
 40
0.000000
  9
$USERR4
 40
0.000000
  9
$USERR5
 40
0.000000
  0
ENDSEC
  0
SECTION
  2
TABLES
  0
TABLE
  2
LTYPE
 70
     5
  0
LTYPE
  2
CONTINUOUS
 70
    64
  3
Solid line
 72
    65
 73
     0
 40
0.0
  0
LTYPE
  2
HIDDEN
 70
    64
  3
------------------------
 72
    65
 73
     2
 40
12.6
 49
8.4
 49
-4.2
  0
LTYPE
  2
DOT
 70
    64
  3
････････････････････････
 72
    65
 73
     2
 40
8.0
 49
6.0
 49
-2.0
  0
LTYPE
  2
DASHDOT
 70
    64
  3
--･--･--･--･--･--･--･--
 72
    65
 73
     4
 40
50.5
 49
30.0
 49
-9.0
 49
2.5
 49
-9.0
  0
LTYPE
  2
DIVIDE
 70
    64
  3
--･･--･･--･･--･･--･･--
 72
    65
 73
     6
 40
58.0
 49
30.0
 49
-9.0
 49
2.5
 49
-5.0
 49
2.5
 49
-9.0
  0
LTYPE
  2
ACAD_ISO06W100
 70
    64
  3
____ ... ____ ... ____
 72
    65
 73
     8
 40
37.5
 49
24.0
 49
-3.0
 49
0.5
 49
-3.0
 49
0.5
 49
-3.0
 49
0.5
 49
-3.0
  0
LTYPE
  2
ACAD_ISO14W100
 70
    64
  3
__ . . . __ . . . __ . . . 
 72
    65
 73
     8
 40
25.5
 49
12.0
 49
-3.0
 49
0.5
 49
-3.0
 49
0.5
 49
-3.0
 49
0.5
 49
-3.0
  0
ENDTAB
  0
TABLE
  2
LAYER
 70
6
  0
LAYER
  2
1
 70
64
 62
7
  6
CONTINUOUS
  0
LAYER
  2
2
 70
64
 62
134
  6
CONTINUOUS
  0
LAYER
  2
8
 70
64
 62
5
  6
CONTINUOUS
  0
LAYER
  2
21
 70
64
 62
7
  6
CONTINUOUS
  0
LAYER
  2
113
 70
64
 62
7
  6
CONTINUOUS
  0
LAYER
  2
128
 70
64
 62
7
  6
CONTINUOUS
  0
ENDTAB
  0
TABLE
  2
STYLE
 70
     2
  0
STYLE
  2
STANDARD
 70
    64
 40
0.0
 41
1.0
 50
0.0
 71
     0
 42
0.2
  3
TXT
  4

  0
STYLE
  2
KANJI
 70
    64
 40
0.0
 41
1.0
 50
0.0
 71
     0
 42
0.2
  3
TXT
  4
BIGFONT
  0
ENDTAB
  0
TABLE
  2
VIEW
 70
     0
  0
ENDTAB
  0
ENDSEC
  0
SECTION
  2
BLOCKS
  0
BLOCK
  8
1
 62
7
  6
CONTINUOUS
  2
*D1
 70
    65
 10
0.0
 20
0.0
  0
LINE
  8
1
 62
7
  6
CONTINUOUS
 10
1882.835281
 20
866.720313
 11
382.835037
 21
866.720313
  0
LINE
  8
1
 62
7
  6
CONTINUOUS
 10
1882.835281
 20
861.720313
 11
1882.835281
 21
1000.295798
  0
LINE
  8
1
 62
7
  6
CONTINUOUS
 10
382.835037
 20
861.720313
 11
382.835037
 21
1000.295798
  0
LINE
  8
1
 62
7
  6
CONTINUOUS
 10
1882.835281
 20
866.720313
 11
1858.687135
 21
860.249837
  0
LINE
  8
1
 62
7
  6
CONTINUOUS
 10
1882.835281
 20
866.720313
 11
1858.687135
 21
873.190789
  0
LINE
  8
1
 62
7
  6
CONTINUOUS
 10
382.835037
 20
866.720313
 11
406.983183
 21
873.190789
  0
LINE
  8
1
 62
7
  6
CONTINUOUS
 10
382.835037
 20
866.720313
 11
406.983183
 21
860.249837
  0
TEXT
  8
1
 62
7
  6
CONTINUOUS
 10
1092.835159
 20
846.720313
 40
40.000000
 41
0.500000
  1
1500
  7
KANJI
 50
0.000000
 51
0.000000
  0
ENDBLK
  0
BLOCK
  8
1
 62
7
  6
CONTINUOUS
  2
*D2
 70
    65
 10
0.0
 20
0.0
  0
LINE
  8
1
 62
7
  6
CONTINUOUS
 10
1995.677781
 20
1015.295798
 11
1995.677781
 21
1415.295798
  0
LINE
  8
1
 62
7
  6
CONTINUOUS
 10
2000.677781
 20
1015.295798
 11
1897.835037
 21
1015.295798
  0
LINE
  8
1
 62
7
  6
CONTINUOUS
 10
2000.677781
 20
1415.295798
 11
1897.835037
 21
1415.295798
  0
LINE
  8
1
 62
7
  6
CONTINUOUS
 10
1995.677781
 20
1015.295798
 11
1989.207305
 21
1039.443944
  0
LINE
  8
1
 62
7
  6
CONTINUOUS
 10
1995.677781
 20
1015.295798
 11
2002.148257
 21
1039.443944
  0
LINE
  8
1
 62
7
  6
CONTINUOUS
 10
1995.677781
 20
1415.295798
 11
2002.148257
 21
1391.147652
  0
LINE
  8
1
 62
7
  6
CONTINUOUS
 10
1995.677781
 20
1415.295798
 11
1989.207305
 21
1391.147652
  0
TEXT
  8
1
 62
7
  6
CONTINUOUS
 10
2015.677781
 20
1185.295798
 40
40.000000
 41
0.500000
  1
400
  7
KANJI
 50
90.000000
 51
0.000000
  0
ENDBLK
  0
BLOCK
  8
1
 62
7
  6
CONTINUOUS
  2
*D3
 70
    65
 10
0.0
 20
0.0
  0
LINE
  8
1
 62
7
  6
CONTINUOUS
 10
2322.346044
 20
866.720313
 11
2402.446044
 21
866.720313
  0
LINE
  8
1
 62
7
  6
CONTINUOUS
 10
2322.346044
 20
861.720313
 11
2322.346044
 21
961.505366
  0
LINE
  8
1
 62
7
  6
CONTINUOUS
 10
2402.446044
 20
861.720313
 11
2402.446044
 21
960.505427
  0
LINE
  8
1
 62
7
  6
CONTINUOUS
 10
2322.346044
 20
866.720313
 11
2346.494190
 21
873.190789
  0
LINE
  8
1
 62
7
  6
CONTINUOUS
 10
2322.346044
 20
866.720313
 11
2346.494190
 21
860.249837
  0
LINE
  8
1
 62
7
  6
CONTINUOUS
 10
2402.446044
 20
866.720313
 11
2378.297898
 21
860.249837
  0
LINE
  8
1
 62
7
  6
CONTINUOUS
 10
2402.446044
 20
866.720313
 11
2378.297898
 21
873.190789
  0
TEXT
  8
1
 62
7
  6
CONTINUOUS
 10
2342.396044
 20
846.720313
 40
40.000000
 41
0.500000
  1
80
  7
KANJI
 50
0.000000
 51
0.000000
  0
ENDBLK
  0
ENDSEC
  0
SECTION
  2
ENTITIES
  0
TEXT
  8
1
 62
7
  6
CONTINUOUS
 10
69.317277
 20
143.220221
 40
10.912545
 41
1.000000
  1
特記事項
  7
KANJI
 50
0.000000
 51
0.000000
  0
LINE
  8
113
 62
7
  6
CONTINUOUS
 10
51.450000
 20
34.300000
 11
51.450000
 21
1952.335490
  0
LINE
  8
1
 62
7
  6
CONTINUOUS
 10
1368.016442
 20
158.848516
 11
1368.016442
 21
31.535490
  0
LINE
  8
1
 62
7
  6
CONTINUOUS
 10
1913.643692
 20
158.848516
 11
1913.643692
 21
34.300000
  0
LINE
  8
1
 62
7
  6
CONTINUOUS
 10
2022.769142
 20
158.848516
 11
2022.769142
 21
34.300000
  0
LINE
  8
113
 62
7
  6
CONTINUOUS
 10
2795.450000
 20
85.233336
 11
2343.525181
 21
86.098216
  0
LINE
  8
1
 62
7
  6
CONTINUOUS
 10
2343.525181
 20
86.098216
 11
2022.769142
 21
86.460388
  0
LINE
  8
1
 62
7
  6
CONTINUOUS
 10
2241.020042
 20
86.213956
 11
2241.020042
 21
34.300000
  0
LINE
  8
1
 62
7
  6
CONTINUOUS
 10
2282.088325
 20
158.848516
 11
2282.088325
 21
86.161541
  0
LINE
  8
1
 62
7
  6
CONTINUOUS
 10
2220.651468
 20
158.917886
 11
2220.651468
 21
86.230911
  0
LINE
  8
1
 62
7
  6
CONTINUOUS
 10
2159.214611
 20
158.987255
 11
2159.214611
 21
86.300280
  0
LINE
  8
1
 62
7
  6
CONTINUOUS
 10
2022.769142
 20
122.156422
 11
2159.214611
 21
122.156422
  0
LINE
  8
113
 62
7
  6
CONTINUOUS
 10
2343.525181
 20
158.848516
 11
2795.450000
 21
158.848516
  0
LINE
  8
113
 62
7
  6
CONTINUOUS
 10
2343.525181
 20
158.848516
 11
2343.525181
 21
34.300000
  0
TEXT
  8
1
 62
7
  6
CONTINUOUS
 10
2351.649555
 20
65.509185
 40
13.720000
 41
1.000000
  1
図面名称
  7
KANJI
 50
0.000000
 51
0.000000
  0
TEXT
  8
1
 62
7
  6
CONTINUOUS
 10
2351.649555
 20
138.259486
 40
13.720000
 41
1.000000
  1
工事名称
  7
KANJI
 50
0.000000
 51
0.000000
  0
TEXT
  8
1
 62
7
  6
CONTINUOUS
 10
2249.144415
 20
65.624926
 40
13.720000
 41
1.000000
  1
分割番号
  7
KANJI
 50
0.000000
 51
0.000000
  0
TEXT
  8
1
 62
7
  6
CONTINUOUS
 10
2033.611457
 20
69.003127
 40
13.720000
 41
1.000000
  1
図　番
  7
KANJI
 50
0.000000
 51
0.000000
  0
TEXT
  8
1
 62
7
  6
CONTINUOUS
 10
2032.774500
 20
99.233206
 40
13.720000
 41
1.000000
  1
縮尺
  7
KANJI
 50
0.000000
 51
0.000000
  0
TEXT
  8
1
 62
7
  6
CONTINUOUS
 10
2032.774500
 20
134.036839
 40
13.720000
 41
1.000000
  1
設計
  7
KANJI
 50
0.000000
 51
0.000000
  0
TEXT
  8
1
 62
7
  6
CONTINUOUS
 10
1923.901596
 20
136.714042
 40
13.720000
 41
1.000000
  1
日付
  7
KANJI
 50
0.000000
 51
0.000000
  0
TEXT
  8
1
 62
7
  6
CONTINUOUS
 10
1105.722306
 20
143.220221
 40
10.912545
 41
1.000000
  1
訂正事項
  7
KANJI
 50
0.000000
 51
0.000000
  0
LINE
  8
1
 62
7
  6
CONTINUOUS
 10
2343.525181
 20
158.848516
 11
51.450000
 21
158.848516
  0
LINE
  8
1
 62
7
  6
CONTINUOUS
 10
69.637575
 20
133.938811
 11
1349.828867
 21
133.938811
  0
LINE
  8
1
 62
7
  6
CONTINUOUS
 10
69.637575
 20
109.029108
 11
1349.828867
 21
109.029108
  0
LINE
  8
1
 62
7
  6
CONTINUOUS
 10
69.637575
 20
84.119405
 11
1349.828867
 21
84.119405
  0
LINE
  8
1
 62
7
  6
CONTINUOUS
 10
69.637575
 20
59.209703
 11
1349.828867
 21
59.209703
  0
LINE
  8
113
 62
7
  6
CONTINUOUS
 10
51.450000
 20
34.300000
 11
2795.450000
 21
34.300000
  0
LINE
  8
113
 62
7
  6
CONTINUOUS
 10
2795.450000
 20
1952.335490
 11
2795.450000
 21
34.300000
  0
LINE
  8
113
 62
7
  6
CONTINUOUS
 10
51.450000
 20
1952.335490
 11
2795.450000
 21
1952.335490
  0
TEXT
  8
1
 62
7
  6
CONTINUOUS
 10
1435.770649
 20
51.192476
 40
18.007500
 41
0.741379
  1
〒228-0803　神奈川県相模原市相模大野3-11-17
  7
KANJI
 50
0.000000
 51
0.000000
  0
TEXT
  8
1
 62
7
  6
CONTINUOUS
 10
1411.820193
 20
81.746888
 40
54.564440
 41
1.000000
  1
エクノス株式会社
  7
KANJI
 50
0.000000
 51
0.000000
  0
LINE
  8
128
 62
7
  6
CONTINUOUS
 10
2795.450000
 20
428.848516
 11
2042.787164
 21
428.848516
  0
TEXT
  8
128
 62
7
  6
CONTINUOUS
 10
2217.998094
 20
300.789466
 40
29.999922
 41
0.937500
  1
リレー接点入力 
  7
KANJI
 50
0.000000
 51
0.000000
  0
LINE
  8
128
 62
7
  6
CONTINUOUS
 10
2795.450000
 20
473.848516
 11
2042.787164
 21
473.848516
  0
TEXT
  8
128
 62
7
  6
CONTINUOUS
 10
2057.451748
 20
436.138480
 40
29.999922
 41
1.000000
  1
形　状
  7
KANJI
 50
0.000000
 51
0.000000
  0
TEXT
  8
128
 62
7
  6
CONTINUOUS
 10
2217.764244
 20
435.737596
 40
29.999922
 41
1.000000
  1
天井吊り下げ型
  7
KANJI
 50
0.000000
 51
0.000000
  0
TEXT
  8
1
 62
7
  6
CONTINUOUS
 10
2522.679939
 20
52.435151
 40
18.187575
 41
1.000000
  1
満空誘導機
  7
KANJI
 50
0.000000
 51
0.000000
  0
TEXT
  8
1
 62
7
  6
CONTINUOUS
 10
2219.587072
 20
265.842479
 40
30.000000
 41
1.000000
  1
空車時　”空”と”→”緑色交互点滅表示
  7
KANJI
 50
0.000000
 51
0.000000
  0
TEXT
  8
1
 62
7
  6
CONTINUOUS
 10
2219.587072
 20
232.992538
 40
30.000000
 41
1.000000
  1
満車時　”満”赤色点灯表示
  7
KANJI
 50
0.000000
 51
0.000000
  0
TEXT
  8
128
 62
7
  6
CONTINUOUS
 10
2057.451748
 20
481.138480
 40
29.999922
 41
1.000000
  1
材　質
  7
KANJI
 50
0.000000
 51
0.000000
  0
TEXT
  8
128
 62
7
  6
CONTINUOUS
 10
2217.764244
 20
480.737596
 40
29.999922
 41
1.000000
  1
鋼板製
  7
KANJI
 50
0.000000
 51
0.000000
  0
LINE
  8
21
 62
7
  6
DOT
 10
1317.835159
 20
1426.852648
 11
1317.835159
 21
1413.777470
  0
LINE
  8
21
 62
7
  6
CONTINUOUS
 10
1327.085159
 20
1416.795859
 11
1308.585159
 21
1416.795859
  0
LINE
  8
21
 62
7
  6
CONTINUOUS
 10
1327.085159
 20
1423.772598
 11
1327.085159
 21
1415.295859
  0
LINE
  8
21
 62
7
  6
CONTINUOUS
 10
1327.085159
 20
1415.295859
 11
1308.585159
 21
1415.295859
  0
LINE
  8
21
 62
7
  6
CONTINUOUS
 10
1308.585159
 20
1415.295859
 11
1308.585159
 21
1423.772598
  0
LINE
  8
21
 62
7
  6
CONTINUOUS
 10
1308.585159
 20
1423.772598
 11
1327.085159
 21
1423.772598
  0
LINE
  8
21
 62
7
  6
DOT
 10
947.835159
 20
1426.852648
 11
947.835159
 21
1413.777470
  0
LINE
  8
21
 62
7
  6
CONTINUOUS
 10
957.085159
 20
1416.795859
 11
938.585159
 21
1416.795859
  0
LINE
  8
21
 62
7
  6
CONTINUOUS
 10
957.085159
 20
1423.772598
 11
957.085159
 21
1415.295859
  0
LINE
  8
21
 62
7
  6
CONTINUOUS
 10
957.085159
 20
1415.295859
 11
938.585159
 21
1415.295859
  0
LINE
  8
21
 62
7
  6
CONTINUOUS
 10
938.585159
 20
1415.295859
 11
938.585159
 21
1423.772598
  0
LINE
  8
21
 62
7
  6
CONTINUOUS
 10
938.585159
 20
1423.772598
 11
957.085159
 21
1423.772598
  0
LINE
  8
21
 62
7
  6
CONTINUOUS
 10
418.585281
 20
1416.795859
 11
437.085281
 21
1416.795859
  0
LINE
  8
21
 62
7
  6
CONTINUOUS
 10
418.585281
 20
1423.772598
 11
418.585281
 21
1415.295859
  0
LINE
  8
21
 62
7
  6
CONTINUOUS
 10
418.585281
 20
1415.295859
 11
437.085281
 21
1415.295859
  0
LINE
  8
21
 62
7
  6
CONTINUOUS
 10
437.085281
 20
1415.295859
 11
437.085281
 21
1423.772598
  0
LINE
  8
21
 62
7
  6
CONTINUOUS
 10
437.085281
 20
1423.772598
 11
418.585281
 21
1423.772598
  0
LINE
  8
21
 62
7
  6
DOT
 10
1837.835159
 20
1426.852648
 11
1837.835159
 21
1413.777470
  0
LINE
  8
21
 62
7
  6
CONTINUOUS
 10
1847.085159
 20
1416.795859
 11
1828.585159
 21
1416.795859
  0
LINE
  8
21
 62
7
  6
CONTINUOUS
 10
1847.085159
 20
1423.772598
 11
1847.085159
 21
1415.295859
  0
LINE
  8
21
 62
7
  6
CONTINUOUS
 10
1847.085159
 20
1415.295859
 11
1828.585159
 21
1415.295859
  0
LINE
  8
21
 62
7
  6
CONTINUOUS
 10
1828.585159
 20
1415.295859
 11
1828.585159
 21
1423.772598
  0
LINE
  8
21
 62
7
  6
CONTINUOUS
 10
1828.585159
 20
1423.772598
 11
1847.085159
 21
1423.772598
  0
LINE
  8
1
 62
7
  6
CONTINUOUS
 10
382.835037
 20
1415.295798
 11
382.835037
 21
1015.295798
  0
LINE
  8
1
 62
7
  6
CONTINUOUS
 10
382.835037
 20
1015.295798
 11
1882.835037
 21
1015.295798
  0
LINE
  8
1
 62
7
  6
CONTINUOUS
 10
1882.835037
 20
1015.295798
 11
1882.835037
 21
1415.295798
  0
LINE
  8
1
 62
7
  6
CONTINUOUS
 10
1882.835037
 20
1415.295798
 11
382.835037
 21
1415.295798
  0
LINE
  8
2
 62
134
  6
CONTINUOUS
 10
1882.835281
 20
1015.295798
 11
1882.835281
 21
1415.295798
  0
LINE
  8
2
 62
134
  6
CONTINUOUS
 10
382.835037
 20
1015.295798
 11
382.835037
 21
1415.295798
  0
LINE
  8
2
 62
134
  6
CONTINUOUS
 10
1882.835281
 20
1415.295798
 11
382.835037
 21
1415.295798
  0
LINE
  8
2
 62
134
  6
CONTINUOUS
 10
382.835037
 20
1015.295798
 11
1882.835281
 21
1015.295798
  0
LINE
  8
2
 62
134
  6
CONTINUOUS
 10
742.792560
 20
1080.293077
 11
742.792560
 21
1350.293077
  0
LINE
  8
2
 62
134
  6
CONTINUOUS
 10
472.792560
 20
1350.293077
 11
472.792560
 21
1080.293077
  0
LINE
  8
2
 62
134
  6
CONTINUOUS
 10
742.792560
 20
1350.293077
 11
472.792560
 21
1350.293077
  0
LINE
  8
2
 62
134
  6
CONTINUOUS
 10
472.792560
 20
1080.293077
 11
742.792560
 21
1080.293077
  0
TEXT
  8
8
 62
5
  6
CONTINUOUS
 10
477.314895
 20
1084.527941
 40
260.000000
 41
1.000000
  1
空
  7
KANJI
 50
0.000000
 51
0.000000
  0
DIMENSION
  8
1
 62
7
  6
CONTINUOUS
  2
*D1
 10
1882.835281
 20
866.720313
 11
1132.835159
 21
846.720313
 70
     0
  1
1500
 13
1882.835281
 23
1000.295798
 14
382.835037
 24
1000.295798
 50
-180.000000
  0
DIMENSION
  8
1
 62
7
  6
CONTINUOUS
  2
*D2
 10
1995.677781
 20
1015.295798
 11
2015.677781
 21
1215.295798
 70
     0
  1
400
 13
1897.835037
 23
1015.295798
 14
1897.835037
 24
1415.295798
 50
90.000000
  0
LINE
  8
2
 62
134
  6
CONTINUOUS
 10
2402.446044
 20
1425.505427
 11
2350.446037
 21
1425.505427
  0
LINE
  8
2
 62
134
  6
CONTINUOUS
 10
2402.446044
 20
975.505427
 11
2402.446044
 21
1425.505427
  0
LINE
  8
2
 62
134
  6
CONTINUOUS
 10
2350.446037
 20
975.505427
 11
2402.446044
 21
975.505427
  0
ARC
  8
21
 62
7
  6
CONTINUOUS
 10
2386.846044
 20
1426.534158
 40
3.000000
 50
0.000000
 51
90.000000
  0
LINE
  8
21
 62
7
  6
CONTINUOUS
 10
2386.846044
 20
1429.534158
 11
2374.846044
 21
1429.534158
  0
LINE
  8
21
 62
7
  6
CONTINUOUS
 10
2342.054732
 20
1427.299967
 11
2344.143407
 21
1429.453438
  0
LINE
  8
21
 62
7
  6
CONTINUOUS
 10
2335.806041
 20
1433.360636
 11
2342.054732
 21
1427.299966
  0
LINE
  8
21
 62
7
  6
CONTINUOUS
 10
2336.346044
 20
1434.005488
 11
2335.806041
 21
1433.360636
  0
ARC
  8
21
 62
7
  6
CONTINUOUS
 10
2341.346044
 20
1428.005488
 40
1.000000
 50
-90.000000
 51
-44.871691
  0
ARC
  8
21
 62
7
  6
CONTINUOUS
 10
2341.346044
 20
1428.005488
 40
2.500000
 50
-90.000000
 51
22.299051
  0
LINE
  8
21
 62
7
  6
CONTINUOUS
 10
2341.346044
 20
1425.505488
 11
2341.346044
 21
1427.005488
  0
LINE
  8
21
 62
7
  6
CONTINUOUS
 10
2329.846044
 20
1427.005488
 11
2341.346044
 21
1427.005488
  0
LINE
  8
21
 62
7
  6
CONTINUOUS
 10
2329.846044
 20
1425.505488
 11
2341.346044
 21
1425.505488
  0
LINE
  8
21
 62
7
  6
CONTINUOUS
 10
2329.846044
 20
1425.505488
 11
2329.846044
 21
1427.005488
  0
ARC
  8
21
 62
7
  6
CONTINUOUS
 10
2348.096044
 20
1430.505488
 40
1.750000
 50
-132.432629
 51
-62.967875
  0
ARC
  8
21
 62
7
  6
CONTINUOUS
 10
2348.096044
 20
1430.505488
 40
1.750000
 50
-62.967875
 51
-132.432629
  0
LINE
  8
21
 62
7
  6
CONTINUOUS
 10
2343.681004
 20
1430.505488
 11
2351.436898
 21
1430.505488
  0
LINE
  8
21
 62
7
  6
CONTINUOUS
 10
2348.096044
 20
1427.104681
 11
2348.096044
 21
1434.448065
  0
LINE
  8
21
 62
7
  6
CONTINUOUS
 10
2344.143407
 20
1429.453438
 11
2370.444072
 21
1426.032540
  0
LINE
  8
21
 62
7
  6
CONTINUOUS
 10
2336.346044
 20
1434.005488
 11
2371.024357
 21
1432.000184
  0
ARC
  8
21
 62
7
  6
CONTINUOUS
 10
2370.846044
 20
1429.005488
 40
3.000000
 50
-97.700253
 51
86.592467
  0
CIRCLE
  8
21
 62
7
  6
CONTINUOUS
 10
2370.846044
 20
1428.505488
 40
2.100000
  0
LINE
  8
21
 62
7
  6
CONTINUOUS
 10
2366.582394
 20
1428.505488
 11
2375.555621
 21
1428.505488
  0
LINE
  8
21
 62
7
  6
CONTINUOUS
 10
2370.846044
 20
1423.907362
 11
2370.846044
 21
1432.874319
  0
LINE
  8
21
 62
7
  6
CONTINUOUS
 10
2382.846043
 20
1429.505488
 11
2381.890840
 21
1429.209536
  0
ARC
  8
21
 62
7
  6
CONTINUOUS
 10
2376.469030
 20
1427.529686
 40
5.676084
 50
17.214649
 51
106.614693
  0
ARC
  8
21
 62
7
  6
CONTINUOUS
 10
2376.469030
 20
1427.529686
 40
6.676084
 50
17.214646
 51
104.069843
  0
LINE
  8
21
 62
7
  6
CONTINUOUS
 10
2380.846044
 20
1425.505488
 11
2380.846044
 21
1427.005488
  0
ARC
  8
21
 62
7
  6
CONTINUOUS
 10
2346.846044
 20
1432.005488
 40
2.000000
 50
90.000000
 51
130.875186
  0
LINE
  8
21
 62
7
  6
CONTINUOUS
 10
2374.444120
 20
1427.005488
 11
2380.846044
 21
1427.005488
  0
ARC
  8
21
 62
7
  6
CONTINUOUS
 10
2371.846044
 20
1428.505488
 40
3.000000
 50
-90.000000
 51
0.000000
  0
ARC
  8
21
 62
7
  6
CONTINUOUS
 10
2347.846044
 20
1428.505488
 40
3.000000
 50
180.000000
 51
-90.000000
  0
LINE
  8
21
 62
7
  6
CONTINUOUS
 10
2374.846044
 20
1428.505488
 11
2374.846044
 21
1434.005488
  0
LINE
  8
21
 62
7
  6
CONTINUOUS
 10
2346.846044
 20
1434.005488
 11
2374.846044
 21
1434.005488
  0
LINE
  8
21
 62
7
  6
CONTINUOUS
 10
2344.846044
 20
1425.505488
 11
2343.846044
 21
1429.146850
  0
LINE
  8
21
 62
7
  6
CONTINUOUS
 10
2359.346044
 20
1424.219928
 11
2359.346044
 21
1428.219928
  0
LINE
  8
21
 62
7
  6
CONTINUOUS
 10
2376.846044
 20
1424.219928
 11
2376.846044
 21
1428.219928
  0
LINE
  8
21
 62
7
  6
CONTINUOUS
 10
2334.346044
 20
1423.505488
 11
2334.346044
 21
1429.005488
  0
LINE
  8
21
 62
7
  6
CONTINUOUS
 10
2344.846044
 20
1425.505488
 11
2389.846044
 21
1425.505488
  0
LINE
  8
21
 62
7
  6
CONTINUOUS
 10
2389.846044
 20
1425.505488
 11
2389.846044
 21
1426.534158
  0
LINE
  8
2
 62
134
  6
CONTINUOUS
 10
2350.446037
 20
1425.505427
 11
2350.446037
 21
975.505427
  0
LINE
  8
2
 62
134
  6
CONTINUOUS
 10
2346.346040
 20
1009.505549
 11
2350.446037
 21
1009.505549
  0
LINE
  8
2
 62
134
  6
CONTINUOUS
 10
2346.346040
 20
1008.305549
 11
2350.446037
 21
1008.305549
  0
LINE
  8
2
 62
134
  6
CONTINUOUS
 10
2346.346040
 20
1392.705014
 11
2350.446037
 21
1392.705014
  0
LINE
  8
2
 62
134
  6
CONTINUOUS
 10
2346.346040
 20
1391.505014
 11
2350.446037
 21
1391.505014
  0
LINE
  8
1
 62
7
  6
CONTINUOUS
 10
2322.346044
 20
1425.505488
 11
2322.346044
 21
976.505366
  0
LINE
  8
1
 62
7
  6
CONTINUOUS
 10
2322.346044
 20
976.505366
 11
2346.346040
 21
976.505366
  0
LINE
  8
1
 62
7
  6
CONTINUOUS
 10
2346.346040
 20
976.505366
 11
2346.346040
 21
1425.505488
  0
LINE
  8
1
 62
7
  6
CONTINUOUS
 10
2346.346040
 20
1425.505488
 11
2322.346044
 21
1425.505488
  0
DIMENSION
  8
1
 62
7
  6
CONTINUOUS
  2
*D3
 10
2322.346044
 20
866.720313
 11
2362.396044
 21
846.720313
 70
     0
  1
80
 13
2322.346044
 23
961.505366
 14
2402.446044
 24
960.505427
 50
0.000000
  0
TEXT
  8
128
 62
7
  6
CONTINUOUS
 10
2057.716972
 20
526.419914
 40
29.999922
 41
1.000000
  1
表面処理
  7
KANJI
 50
0.000000
 51
0.000000
  0
TEXT
  8
128
 62
7
  6
CONTINUOUS
 10
2218.032418
 20
255.375156
 40
29.999996
 41
0.500000
  1
 
  7
KANJI
 50
0.000000
 51
0.000000
  0
TEXT
  8
128
 62
7
  6
DASHDOT
 10
2217.760602
 20
301.198006
 40
29.999996
 41
0.500000
  1
 
  7
KANJI
 50
0.000000
 51
0.000000
  0
TEXT
  8
128
 62
7
  6
CONTINUOUS
 10
2057.572050
 20
280.979124
 40
29.999922
 41
1.000000
  1
備　考
  7
KANJI
 50
0.000000
 51
0.000000
  0
TEXT
  8
128
 62
7
  6
CONTINUOUS
 10
2057.572050
 20
346.146906
 40
29.999922
 41
0.750000
  1
重  量
  7
KANJI
 50
0.000000
 51
0.000000
  0
TEXT
  8
128
 62
7
  6
CONTINUOUS
 10
2057.451748
 20
571.138480
 40
29.999922
 41
1.000000
  1
表示器
  7
KANJI
 50
0.000000
 51
0.000000
  0
LINE
  8
128
 62
7
  6
CONTINUOUS
 10
2795.450000
 20
608.848516
 11
2042.787164
 21
608.848516
  0
LINE
  8
128
 62
7
  6
CONTINUOUS
 10
2795.450000
 20
563.848516
 11
2042.787164
 21
563.848516
  0
LINE
  8
128
 62
7
  6
CONTINUOUS
 10
2795.450000
 20
518.848516
 11
2042.787164
 21
518.848516
  0
LINE
  8
128
 62
7
  6
CONTINUOUS
 10
2042.787164
 20
383.848516
 11
2795.450000
 21
383.848516
  0
LINE
  8
128
 62
7
  6
CONTINUOUS
 10
2795.450000
 20
338.848516
 11
2042.787164
 21
338.848516
  0
LINE
  8
128
 62
7
  6
CONTINUOUS
 10
2042.787164
 20
608.848516
 11
2042.787164
 21
158.848516
  0
LINE
  8
128
 62
7
  6
CONTINUOUS
 10
2201.023216
 20
608.848516
 11
2201.023216
 21
158.848516
  0
TEXT
  8
128
 62
7
  6
CONTINUOUS
 10
2217.884546
 20
347.349558
 40
29.999922
 41
0.500000
  1
20kg
  7
KANJI
 50
0.000000
 51
0.000000
  0
TEXT
  8
128
 62
7
  6
CONTINUOUS
 10
2217.764244
 20
570.737596
 40
29.999922
 41
0.650000
  1
□240　2色LED
  7
KANJI
 50
0.000000
 51
0.000000
  0
TEXT
  8
128
 62
7
  6
CONTINUOUS
 10
2057.685598
 20
391.591234
 40
29.999922
 41
1.000000
  1
電　源
  7
KANJI
 50
0.000000
 51
0.000000
  0
TEXT
  8
128
 62
7
  6
CONTINUOUS
 10
2217.998094
 20
390.789466
 40
29.999922
 41
0.571428
  1
AC100V/200V 兼用
  7
KANJI
 50
0.000000
 51
0.000000
  0
TEXT
  8
128
 62
7
  6
CONTINUOUS
 10
2218.029468
 20
525.618146
 40
29.999922
 41
0.650000
  1
ﾏﾝｾﾙ 2.5BG5/8 半艶焼付塗装
  7
KANJI
 50
0.000000
 51
0.000000
  0
TEXT
  8
1
 62
7
  6
CONTINUOUS
 10
2102.953365
 20
96.059133
 40
18.187575
 41
0.500000
  1
1/5
  7
KANJI
 50
0.000000
 51
0.000000
  0
LINE
  8
1
 62
7
  6
CONTINUOUS
 10
1616.514941
 20
1286.377930
 11
1697.372806
 21
1205.520066
  0
ARC
  8
1
 62
7
  6
CONTINUOUS
 10
1711.514941
 20
1219.662201
 40
20.000000
 50
-135.000000
 51
45.000000
  0
LINE
  8
1
 62
7
  6
CONTINUOUS
 10
1610.657077
 20
1348.804337
 11
1725.657077
 21
1233.804337
  0
ARC
  8
1
 62
7
  6
CONTINUOUS
 10
1596.514941
 20
1334.662201
 40
20.000000
 50
45.000000
 51
135.000000
  0
LINE
  8
1
 62
7
  6
CONTINUOUS
 10
1582.372806
 20
1348.804337
 11
1467.372806
 21
1233.804337
  0
LINE
  8
1
 62
7
  6
CONTINUOUS
 10
1576.514941
 20
1286.377930
 11
1495.657074
 21
1205.520063
  0
ARC
  8
1
 62
7
  6
CONTINUOUS
 10
1481.514941
 20
1219.662201
 40
20.000000
 50
135.000000
 51
-45.000012
  0
LINE
  8
1
 62
7
  6
CONTINUOUS
 10
1576.514941
 20
1286.377930
 11
1576.514941
 21
1104.662201
  0
LINE
  8
1
 62
7
  6
CONTINUOUS
 10
1616.514941
 20
1286.377930
 11
1616.514941
 21
1104.662201
  0
ARC
  8
1
 62
7
  6
CONTINUOUS
 10
1596.514941
 20
1104.662201
 40
20.000000
 50
180.000000
 51
0.000000
  0
ENDSEC
  0
EOF
