  0
SECTION
  2
HEADER
  9
$ACADVER
  1
AC1004
  9
$INSBASE
 10
0.000000
 20
0.000000
  9
$EXTMIN
 10
0.000000
 20
0.000000
  9
$EXTMAX
 10
4200.000000
 20
2970.000000
  9
$LIMMIN
 10
0.000000
 20
0.000000
  9
$LIMMAX
 10
4200.000000
 20
2970.000000
  9
$VIEWCTR
 10
2100.000000
 20
1485.000000
  9
$VIEWSIZE
 40
2970.000000
  9
$PEXTMIN
 10
0.000000
 20
0.000000
 30
0.000000
  9
$PEXTMAX
 10
420.000000
 20
297.000000
 30
0.000000
  9
$SNAPMODE
 70
     0
  9
$SNAPUNIT
 10
1.000000
 20
1.000000
  9
$SNAPBASE
 10
0.000000
 20
0.000000
  9
$SNAPANG
 50
0.000000
  9
$SNAPISOPAIR
 70
     0
  9
$SNAPSTYLE
 70
     0
  9
$GRIDMODE
 70
     0
  9
$GRIDUNIT
 10
0.000000
 20
0.000000
  9
$ORTHOMODE
 70
     0
  9
$REGENMODE
 70
     1
  9
$FILLMODE
 70
     1
  9
$QTEXTMODE
 70
     0
  9
$DRAGMODE
 70
     2
  9
$LTSCALE
 40
2.500000
  9
$OSMODE
 70
     0
  9
$ATTMODE
 70
     1
  9
$TEXTSIZE
 40
50.000000
  9
$TRACEWID
 40
0.050000
  9
$TEXTSTYLE
  7
STANDARD
  9
$CLAYER
  8
0
  9
$CELTYPE
  6
BYLAYER
  9
$CECOLOR
 62
   256
  9
$DIMSCALE
 40
1.000000
  9
$DIMASZ
 40
1.000000
  9
$DIMEXO
 40
0.000000
  9
$DIMDLI
 40
0.500000
  9
$DIMRND
 40
0.000000
  9
$DIMDLE
 40
0.000000
  9
$DIMEXE
 40
0.000000
  9
$DIMTP
 40
0.000000
  9
$DIMTM
 40
0.000000
  9
$DIMTXT
 40
4.000000
  9
$DIMCEN
 40
0.000000
  9
$DIMTSZ
 40
0.000000
  9
$DIMTOL
 70
     0
  9
$DIMLIM
 70
     0
  9
$DIMTIH
 70
     1
  9
$DIMTOH
 70
     1
  9
$DIMSE1
 70
     0
  9
$DIMSE2
 70
     0
  9
$DIMTAD
 70
     0
  9
$DIMZIN
 70
     0
  9
$DIMBLK
  1

  9
$DIMASO
 70
     0
  9
$DIMSHO
 70
     0
  9
$DIMPOST
  1

  9
$DIMAPOST
  1

  9
$DIMALT
 70
     0
  9
$DIMALTD
 70
     0
  9
$DIMALTF
 40
25.400000
  9
$DIMLFAC
 40
1.000000
  9
$DIMTOFL
 70
     0
  9
$DIMTVP
 40
0.000000
  9
$DIMTIX
 70
     0
  9
$DIMSOXD
 70
     0
  9
$DIMSAH
 70
     0
  9
$DIMBLKL
  1

  9
$DIMBLKR
  1

  9
$LUNITS
 70
     2
  9
$LUPREC
 70
     2
  9
$AXISMODE
 70
     0
  9
$AXISUNIT
 10
1.000000
 20
1.000000
  9
$SKETCHINC
 40
0.000000
  9
$FILLETRAD
 40
0.000000
  9
$AUNITS
 70
     1
  9
$AUPREC
 70
     2
  9
$MENU
  1
ACAD
  9
$ELEVATION
 40
0.000000
  9
$THICKNESS
 40
0.000000
  9
$VIEWDIR
 10
0.000000
 20
0.000000
 30
1.000000
  9
$LIMCHECK
 70
     1
  9
$BLIPMODE
 70
     1
  9
$CHAMFERA
 40
0.000000
  9
$CHAMFERB
 40
0.000000
  9
$FASTZOOM
 70
     1
  9
$SKPOLY
 70
     0
  9
$TDCREATE
 40
0.000000
  9
$TDUPDATE
 40
0.000000
  9
$TDINDWG
 40
0.000000
  9
$TDUSRTIMER
 40
0.000000
  9
$USRTIMER
 70
     1
  9
$ANGBASE
 50
0.000000
  9
$ANGDIR
 70
     0
  9
$PDMODE
 70
     0
  9
$PDSIZE
 40
0.000000
  9
$PLINEWID
 40
0.000000
  9
$COORDS
 70
     2
  9
$USERI1
 70
     0
  9
$USERI2
 70
     0
  9
$USERI3
 70
     0
  9
$USERI4
 70
     0
  9
$USERI5
 70
     0
  9
$USERR1
 40
0.000000
  9
$USERR2
 40
0.000000
  9
$USERR3
 40
0.000000
  9
$USERR4
 40
0.000000
  9
$USERR5
 40
0.000000
  0
ENDSEC
  0
SECTION
  2
TABLES
  0
TABLE
  2
LTYPE
 70
     5
  0
LTYPE
  2
CONTINUOUS
 70
    64
  3
Solid line
 72
    65
 73
     0
 40
0.0
  0
LTYPE
  2
HIDDEN
 70
    64
  3
------------------------
 72
    65
 73
     2
 40
12.6
 49
8.4
 49
-4.2
  0
LTYPE
  2
DOT
 70
    64
  3
････････････････････････
 72
    65
 73
     2
 40
8.0
 49
6.0
 49
-2.0
  0
LTYPE
  2
DASHDOT
 70
    64
  3
--･--･--･--･--･--･--･--
 72
    65
 73
     4
 40
50.5
 49
30.0
 49
-9.0
 49
2.5
 49
-9.0
  0
LTYPE
  2
DIVIDE
 70
    64
  3
--･･--･･--･･--･･--･･--
 72
    65
 73
     6
 40
58.0
 49
30.0
 49
-9.0
 49
2.5
 49
-5.0
 49
2.5
 49
-9.0
  0
LTYPE
  2
ACAD_ISO06W100
 70
    64
  3
____ ... ____ ... ____
 72
    65
 73
     8
 40
37.5
 49
24.0
 49
-3.0
 49
0.5
 49
-3.0
 49
0.5
 49
-3.0
 49
0.5
 49
-3.0
  0
LTYPE
  2
ACAD_ISO14W100
 70
    64
  3
__ . . . __ . . . __ . . . 
 72
    65
 73
     8
 40
25.5
 49
12.0
 49
-3.0
 49
0.5
 49
-3.0
 49
0.5
 49
-3.0
 49
0.5
 49
-3.0
  0
ENDTAB
  0
TABLE
  2
LAYER
 70
7
  0
LAYER
  2
1
 70
64
 62
7
  6
CONTINUOUS
  0
LAYER
  2
4
 70
64
 62
54
  6
CONTINUOUS
  0
LAYER
  2
6
 70
64
 62
14
  6
CONTINUOUS
  0
LAYER
  2
8
 70
64
 62
5
  6
CONTINUOUS
  0
LAYER
  2
11
 70
64
 62
251
  6
CONTINUOUS
  0
LAYER
  2
113
 70
64
 62
7
  6
CONTINUOUS
  0
LAYER
  2
128
 70
64
 62
7
  6
CONTINUOUS
  0
ENDTAB
  0
TABLE
  2
STYLE
 70
     2
  0
STYLE
  2
STANDARD
 70
    64
 40
0.0
 41
1.0
 50
0.0
 71
     0
 42
0.2
  3
TXT
  4

  0
STYLE
  2
KANJI
 70
    64
 40
0.0
 41
1.0
 50
0.0
 71
     0
 42
0.2
  3
TXT
  4
BIGFONT
  0
ENDTAB
  0
TABLE
  2
VIEW
 70
     0
  0
ENDTAB
  0
ENDSEC
  0
SECTION
  2
BLOCKS
  0
BLOCK
  8
1
 62
7
  6
CONTINUOUS
  2
*D1
 70
    65
 10
0.0
 20
0.0
  0
LINE
  8
1
 62
7
  6
CONTINUOUS
 10
1219.893777
 20
2126.899267
 11
719.893777
 21
2126.899267
  0
LINE
  8
1
 62
7
  6
CONTINUOUS
 10
1219.893777
 20
2136.899267
 11
1219.893777
 21
2013.983201
  0
LINE
  8
1
 62
7
  6
CONTINUOUS
 10
719.893777
 20
2136.899267
 11
719.893777
 21
2013.983201
  0
CIRCLE
  8
1
 62
7
  6
CONTINUOUS
 10
1219.893777
 20
2126.899267
 40
3.000000
  0
CIRCLE
  8
1
 62
7
  6
CONTINUOUS
 10
1219.893777
 20
2126.899267
 40
1.500000
  0
CIRCLE
  8
1
 62
7
  6
CONTINUOUS
 10
719.893777
 20
2126.899267
 40
3.000000
  0
CIRCLE
  8
1
 62
7
  6
CONTINUOUS
 10
719.893777
 20
2126.899267
 40
1.500000
  0
TEXT
  8
1
 62
7
  6
CONTINUOUS
 10
939.893777
 20
2126.899267
 40
40.000000
 41
0.500000
  1
500
  7
KANJI
 50
0.000000
 51
0.000000
  0
ENDBLK
  0
BLOCK
  8
1
 62
7
  6
CONTINUOUS
  2
*D2
 70
    65
 10
0.0
 20
0.0
  0
LINE
  8
1
 62
7
  6
CONTINUOUS
 10
1872.456957
 20
2126.899267
 11
1740.456957
 21
2126.899267
  0
LINE
  8
1
 62
7
  6
CONTINUOUS
 10
1832.456957
 20
2136.899267
 11
1832.456957
 21
2013.983201
  0
LINE
  8
1
 62
7
  6
CONTINUOUS
 10
1780.456957
 20
2136.899267
 11
1780.456957
 21
2013.983201
  0
CIRCLE
  8
1
 62
7
  6
CONTINUOUS
 10
1832.456957
 20
2126.899267
 40
3.000000
  0
CIRCLE
  8
1
 62
7
  6
CONTINUOUS
 10
1832.456957
 20
2126.899267
 40
1.500000
  0
CIRCLE
  8
1
 62
7
  6
CONTINUOUS
 10
1780.456957
 20
2126.899267
 40
3.000000
  0
CIRCLE
  8
1
 62
7
  6
CONTINUOUS
 10
1780.456957
 20
2126.899267
 40
1.500000
  0
TEXT
  8
1
 62
7
  6
CONTINUOUS
 10
1786.456957
 20
2126.899267
 40
40.000000
 41
0.500000
  1
52
  7
KANJI
 50
0.000000
 51
0.000000
  0
ENDBLK
  0
BLOCK
  8
1
 62
7
  6
CONTINUOUS
  2
*D3
 70
    65
 10
0.0
 20
0.0
  0
LINE
  8
1
 62
7
  6
CONTINUOUS
 10
1221.393777
 20
2264.088563
 11
718.393777
 21
2264.088563
  0
LINE
  8
1
 62
7
  6
CONTINUOUS
 10
1221.393777
 20
2254.088563
 11
1221.393777
 21
2364.961872
  0
LINE
  8
1
 62
7
  6
CONTINUOUS
 10
718.393777
 20
2254.088563
 11
718.393777
 21
2364.961872
  0
CIRCLE
  8
1
 62
7
  6
CONTINUOUS
 10
1221.393777
 20
2264.088563
 40
3.000000
  0
CIRCLE
  8
1
 62
7
  6
CONTINUOUS
 10
1221.393777
 20
2264.088563
 40
1.500000
  0
CIRCLE
  8
1
 62
7
  6
CONTINUOUS
 10
718.393777
 20
2264.088563
 40
3.000000
  0
CIRCLE
  8
1
 62
7
  6
CONTINUOUS
 10
718.393777
 20
2264.088563
 40
1.500000
  0
TEXT
  8
1
 62
7
  6
CONTINUOUS
 10
939.893777
 20
2264.088563
 40
40.000000
 41
0.500000
  1
503
  7
KANJI
 50
0.000000
 51
0.000000
  0
ENDBLK
  0
BLOCK
  8
1
 62
7
  6
CONTINUOUS
  2
*D4
 70
    65
 10
0.0
 20
0.0
  0
LINE
  8
1
 62
7
  6
CONTINUOUS
 10
1381.999202
 20
303.983201
 11
1381.999202
 21
2003.983201
  0
LINE
  8
1
 62
7
  6
CONTINUOUS
 10
1391.999202
 20
303.983201
 11
1229.893777
 21
303.983201
  0
LINE
  8
1
 62
7
  6
CONTINUOUS
 10
1391.999202
 20
2003.983201
 11
1229.893777
 21
2003.983201
  0
CIRCLE
  8
1
 62
7
  6
CONTINUOUS
 10
1381.999202
 20
303.983201
 40
3.000000
  0
CIRCLE
  8
1
 62
7
  6
CONTINUOUS
 10
1381.999202
 20
303.983201
 40
1.500000
  0
CIRCLE
  8
1
 62
7
  6
CONTINUOUS
 10
1381.999202
 20
2003.983201
 40
3.000000
  0
CIRCLE
  8
1
 62
7
  6
CONTINUOUS
 10
1381.999202
 20
2003.983201
 40
1.500000
  0
TEXT
  8
1
 62
7
  6
CONTINUOUS
 10
1381.999202
 20
1113.983201
 40
40.000000
 41
0.500000
  1
1700
  7
KANJI
 50
90.000000
 51
0.000000
  0
ENDBLK
  0
BLOCK
  8
1
 62
7
  6
CONTINUOUS
  2
*D5
 70
    65
 10
0.0
 20
0.0
  0
LINE
  8
1
 62
7
  6
CONTINUOUS
 10
1381.999202
 20
2374.961872
 11
1381.999202
 21
2554.961872
  0
LINE
  8
1
 62
7
  6
CONTINUOUS
 10
1391.999202
 20
2374.961872
 11
1231.393777
 21
2374.961872
  0
LINE
  8
1
 62
7
  6
CONTINUOUS
 10
1391.999202
 20
2554.961872
 11
1231.393777
 21
2554.961872
  0
CIRCLE
  8
1
 62
7
  6
CONTINUOUS
 10
1381.999202
 20
2374.961872
 40
3.000000
  0
CIRCLE
  8
1
 62
7
  6
CONTINUOUS
 10
1381.999202
 20
2374.961872
 40
1.500000
  0
CIRCLE
  8
1
 62
7
  6
CONTINUOUS
 10
1381.999202
 20
2554.961872
 40
3.000000
  0
CIRCLE
  8
1
 62
7
  6
CONTINUOUS
 10
1381.999202
 20
2554.961872
 40
1.500000
  0
TEXT
  8
1
 62
7
  6
CONTINUOUS
 10
1381.999202
 20
2434.961872
 40
40.000000
 41
0.500000
  1
180
  7
KANJI
 50
90.000000
 51
0.000000
  0
ENDBLK
  0
ENDSEC
  0
SECTION
  2
ENTITIES
  0
TEXT
  8
1
 62
7
  6
CONTINUOUS
 10
99.024681
 20
204.600316
 40
15.589350
 41
1.000000
  1
特記事項
  7
KANJI
 50
0.000000
 51
0.000000
  0
LINE
  8
113
 62
7
  6
CONTINUOUS
 10
73.500000
 20
49.000000
 11
73.500000
 21
2789.050700
  0
LINE
  8
1
 62
7
  6
CONTINUOUS
 10
1954.309202
 20
226.926452
 11
1954.309202
 21
45.050700
  0
LINE
  8
1
 62
7
  6
CONTINUOUS
 10
2733.776702
 20
226.926452
 11
2733.776702
 21
49.000000
  0
LINE
  8
1
 62
7
  6
CONTINUOUS
 10
2889.670202
 20
226.926452
 11
2889.670202
 21
49.000000
  0
LINE
  8
113
 62
7
  6
CONTINUOUS
 10
3993.500000
 20
121.761909
 11
3347.893116
 21
122.997451
  0
LINE
  8
1
 62
7
  6
CONTINUOUS
 10
3347.893116
 20
122.997451
 11
2889.670202
 21
123.514839
  0
LINE
  8
1
 62
7
  6
CONTINUOUS
 10
3201.457202
 20
123.162795
 11
3201.457202
 21
49.000000
  0
LINE
  8
1
 62
7
  6
CONTINUOUS
 10
3260.126178
 20
226.926452
 11
3260.126178
 21
123.087916
  0
LINE
  8
1
 62
7
  6
CONTINUOUS
 10
3172.359240
 20
227.025551
 11
3172.359240
 21
123.187015
  0
LINE
  8
1
 62
7
  6
CONTINUOUS
 10
3084.592301
 20
227.124651
 11
3084.592301
 21
123.286114
  0
LINE
  8
1
 62
7
  6
CONTINUOUS
 10
2889.670202
 20
174.509174
 11
3084.592301
 21
174.509174
  0
LINE
  8
113
 62
7
  6
CONTINUOUS
 10
3347.893116
 20
226.926452
 11
3993.500000
 21
226.926452
  0
LINE
  8
113
 62
7
  6
CONTINUOUS
 10
3347.893116
 20
226.926452
 11
3347.893116
 21
49.000000
  0
TEXT
  8
1
 62
7
  6
CONTINUOUS
 10
3359.499364
 20
93.584550
 40
19.600000
 41
1.000000
  1
図面名称
  7
KANJI
 50
0.000000
 51
0.000000
  0
TEXT
  8
1
 62
7
  6
CONTINUOUS
 10
3359.499364
 20
197.513551
 40
19.600000
 41
1.000000
  1
工事名称
  7
KANJI
 50
0.000000
 51
0.000000
  0
TEXT
  8
1
 62
7
  6
CONTINUOUS
 10
3213.063451
 20
93.749894
 40
19.600000
 41
1.000000
  1
分割番号
  7
KANJI
 50
0.000000
 51
0.000000
  0
TEXT
  8
1
 62
7
  6
CONTINUOUS
 10
2905.159225
 20
98.575896
 40
19.600000
 41
1.000000
  1
図　番
  7
KANJI
 50
0.000000
 51
0.000000
  0
TEXT
  8
1
 62
7
  6
CONTINUOUS
 10
2903.963572
 20
141.761723
 40
19.600000
 41
1.000000
  1
縮尺
  7
KANJI
 50
0.000000
 51
0.000000
  0
TEXT
  8
1
 62
7
  6
CONTINUOUS
 10
2903.963572
 20
191.481199
 40
19.600000
 41
1.000000
  1
設計
  7
KANJI
 50
0.000000
 51
0.000000
  0
TEXT
  8
1
 62
7
  6
CONTINUOUS
 10
2748.430852
 20
195.305774
 40
19.600000
 41
1.000000
  1
日付
  7
KANJI
 50
0.000000
 51
0.000000
  0
TEXT
  8
1
 62
7
  6
CONTINUOUS
 10
1579.603295
 20
204.600316
 40
15.589350
 41
1.000000
  1
訂正事項
  7
KANJI
 50
0.000000
 51
0.000000
  0
LINE
  8
1
 62
7
  6
CONTINUOUS
 10
3347.893116
 20
226.926452
 11
73.500000
 21
226.926452
  0
LINE
  8
1
 62
7
  6
CONTINUOUS
 10
99.482250
 20
191.341158
 11
1928.326952
 21
191.341158
  0
LINE
  8
1
 62
7
  6
CONTINUOUS
 10
99.482250
 20
155.755869
 11
1928.326952
 21
155.755869
  0
LINE
  8
1
 62
7
  6
CONTINUOUS
 10
99.482250
 20
120.170579
 11
1928.326952
 21
120.170579
  0
LINE
  8
1
 62
7
  6
CONTINUOUS
 10
99.482250
 20
84.585290
 11
1928.326952
 21
84.585290
  0
LINE
  8
113
 62
7
  6
CONTINUOUS
 10
73.500000
 20
49.000000
 11
3993.500000
 21
49.000000
  0
LINE
  8
113
 62
7
  6
CONTINUOUS
 10
3993.500000
 20
2789.050700
 11
3993.500000
 21
49.000000
  0
LINE
  8
113
 62
7
  6
CONTINUOUS
 10
73.500000
 20
2789.050700
 11
3993.500000
 21
2789.050700
  0
TEXT
  8
1
 62
7
  6
CONTINUOUS
 10
2051.100927
 20
73.132108
 40
25.725000
 41
0.741379
  1
〒228-0803　神奈川県相模原市相模大野3-11-17
  7
KANJI
 50
0.000000
 51
0.000000
  0
TEXT
  8
1
 62
7
  6
CONTINUOUS
 10
2016.885990
 20
116.781269
 40
77.949200
 41
1.000000
  1
エクノス株式会社
  7
KANJI
 50
0.000000
 51
0.000000
  0
TEXT
  8
1
 62
7
  6
CONTINUOUS
 10
3538.872860
 20
74.907359
 40
25.982250
 41
1.000000
  1
フロアー別満空表示機
  7
KANJI
 50
0.000000
 51
0.000000
  0
LINE
  8
6
 62
14
  6
CONTINUOUS
 10
718.393777
 20
403.983201
 11
718.393777
 21
303.983201
  0
LINE
  8
6
 62
14
  6
CONTINUOUS
 10
1221.393777
 20
403.983201
 11
1221.393777
 21
303.983201
  0
LINE
  8
1
 62
7
  6
CONTINUOUS
 10
719.893777
 20
2003.983201
 11
1219.893777
 21
2003.983201
  0
LINE
  8
6
 62
14
  6
CONTINUOUS
 10
1221.393777
 20
303.983201
 11
718.393777
 21
303.983201
  0
LINE
  8
1
 62
7
  6
CONTINUOUS
 10
719.893777
 20
303.983201
 11
719.893777
 21
2003.983201
  0
LINE
  8
1
 62
7
  6
CONTINUOUS
 10
1219.893777
 20
2003.983201
 11
1219.893777
 21
303.983201
  0
LINE
  8
1
 62
7
  6
CONTINUOUS
 10
719.893777
 20
303.983201
 11
1219.893777
 21
303.983201
  0
LINE
  8
6
 62
14
  6
CONTINUOUS
 10
1221.393777
 20
318.983201
 11
718.393777
 21
318.983201
  0
LINE
  8
6
 62
14
  6
CONTINUOUS
 10
1221.393777
 20
403.983201
 11
718.393777
 21
403.983201
  0
LINE
  8
6
 62
14
  6
DOT
 10
719.593777
 20
403.983201
 11
719.593777
 21
305.183201
  0
LINE
  8
6
 62
14
  6
DOT
 10
719.593777
 20
305.183201
 11
1220.193777
 21
305.183201
  0
LINE
  8
6
 62
14
  6
DOT
 10
1220.193777
 20
305.183201
 11
1220.193777
 21
403.983201
  0
LINE
  8
4
 62
54
  6
CONTINUOUS
 10
995.893777
 20
1224.983201
 11
995.893777
 21
1352.983201
  0
LINE
  8
4
 62
54
  6
CONTINUOUS
 10
1123.893777
 20
1352.983201
 11
1123.893777
 21
1224.983201
  0
LINE
  8
4
 62
54
  6
CONTINUOUS
 10
995.893777
 20
1352.983201
 11
1123.893777
 21
1352.983201
  0
LINE
  8
4
 62
54
  6
CONTINUOUS
 10
1123.893777
 20
1224.983201
 11
995.893777
 21
1224.983201
  0
ARC
  8
1
 62
7
  6
CONTINUOUS
 10
994.393777
 20
1354.483201
 40
2.000000
 50
90.000000
 51
180.000000
  0
LINE
  8
1
 62
7
  6
CONTINUOUS
 10
994.393777
 20
1356.483201
 11
1125.393777
 21
1356.483201
  0
ARC
  8
1
 62
7
  6
CONTINUOUS
 10
1125.393777
 20
1354.483201
 40
2.000000
 50
0.000000
 51
90.000000
  0
LINE
  8
1
 62
7
  6
CONTINUOUS
 10
1127.393777
 20
1354.483201
 11
1127.393777
 21
1223.483201
  0
ARC
  8
1
 62
7
  6
CONTINUOUS
 10
1125.393777
 20
1223.483201
 40
2.000000
 50
-90.000000
 51
0.000000
  0
LINE
  8
1
 62
7
  6
CONTINUOUS
 10
1125.393777
 20
1221.483201
 11
994.393777
 21
1221.483201
  0
LINE
  8
1
 62
7
  6
CONTINUOUS
 10
992.393777
 20
1223.483201
 11
992.393777
 21
1354.483201
  0
ARC
  8
1
 62
7
  6
CONTINUOUS
 10
994.393777
 20
1223.483201
 40
2.000000
 50
180.000000
 51
-90.000000
  0
LINE
  8
4
 62
54
  6
CONTINUOUS
 10
995.893777
 20
1379.983201
 11
995.893777
 21
1507.983201
  0
LINE
  8
4
 62
54
  6
CONTINUOUS
 10
1123.893777
 20
1507.983201
 11
1123.893777
 21
1379.983201
  0
LINE
  8
4
 62
54
  6
CONTINUOUS
 10
995.893777
 20
1507.983201
 11
1123.893777
 21
1507.983201
  0
LINE
  8
4
 62
54
  6
CONTINUOUS
 10
1123.893777
 20
1379.983201
 11
995.893777
 21
1379.983201
  0
ARC
  8
1
 62
7
  6
CONTINUOUS
 10
994.393777
 20
1509.483201
 40
2.000000
 50
90.000000
 51
180.000000
  0
LINE
  8
1
 62
7
  6
CONTINUOUS
 10
994.393777
 20
1511.483201
 11
1125.393777
 21
1511.483201
  0
ARC
  8
1
 62
7
  6
CONTINUOUS
 10
1125.393777
 20
1509.483201
 40
2.000000
 50
0.000000
 51
90.000000
  0
LINE
  8
1
 62
7
  6
CONTINUOUS
 10
1127.393777
 20
1509.483201
 11
1127.393777
 21
1378.483201
  0
ARC
  8
1
 62
7
  6
CONTINUOUS
 10
1125.393777
 20
1378.483201
 40
2.000000
 50
-90.000000
 51
0.000000
  0
LINE
  8
1
 62
7
  6
CONTINUOUS
 10
1125.393777
 20
1376.483201
 11
994.393777
 21
1376.483201
  0
LINE
  8
1
 62
7
  6
CONTINUOUS
 10
992.393777
 20
1378.483201
 11
992.393777
 21
1509.483201
  0
ARC
  8
1
 62
7
  6
CONTINUOUS
 10
994.393777
 20
1378.483201
 40
2.000000
 50
180.000000
 51
-90.000000
  0
LINE
  8
4
 62
54
  6
CONTINUOUS
 10
995.893777
 20
1534.983201
 11
995.893777
 21
1662.983201
  0
LINE
  8
4
 62
54
  6
CONTINUOUS
 10
1123.893777
 20
1662.983201
 11
1123.893777
 21
1534.983201
  0
LINE
  8
4
 62
54
  6
CONTINUOUS
 10
995.893777
 20
1662.983201
 11
1123.893777
 21
1662.983201
  0
LINE
  8
4
 62
54
  6
CONTINUOUS
 10
1123.893777
 20
1534.983201
 11
995.893777
 21
1534.983201
  0
ARC
  8
1
 62
7
  6
CONTINUOUS
 10
994.393777
 20
1664.483201
 40
2.000000
 50
90.000000
 51
180.000000
  0
LINE
  8
1
 62
7
  6
CONTINUOUS
 10
994.393777
 20
1666.483201
 11
1125.393777
 21
1666.483201
  0
ARC
  8
1
 62
7
  6
CONTINUOUS
 10
1125.393777
 20
1664.483201
 40
2.000000
 50
0.000000
 51
90.000000
  0
LINE
  8
1
 62
7
  6
CONTINUOUS
 10
1127.393777
 20
1664.483201
 11
1127.393777
 21
1533.483201
  0
ARC
  8
1
 62
7
  6
CONTINUOUS
 10
1125.393777
 20
1533.483201
 40
2.000000
 50
-90.000000
 51
0.000000
  0
LINE
  8
1
 62
7
  6
CONTINUOUS
 10
1125.393777
 20
1531.483201
 11
994.393777
 21
1531.483201
  0
LINE
  8
1
 62
7
  6
CONTINUOUS
 10
992.393777
 20
1533.483201
 11
992.393777
 21
1664.483201
  0
ARC
  8
1
 62
7
  6
CONTINUOUS
 10
994.393777
 20
1533.483201
 40
2.000000
 50
180.000000
 51
-90.000000
  0
LINE
  8
4
 62
54
  6
CONTINUOUS
 10
995.893777
 20
1689.983201
 11
995.893777
 21
1817.983201
  0
LINE
  8
4
 62
54
  6
CONTINUOUS
 10
1123.893777
 20
1817.983201
 11
1123.893777
 21
1689.983201
  0
LINE
  8
4
 62
54
  6
CONTINUOUS
 10
995.893777
 20
1817.983201
 11
1123.893777
 21
1817.983201
  0
LINE
  8
4
 62
54
  6
CONTINUOUS
 10
1123.893777
 20
1689.983201
 11
995.893777
 21
1689.983201
  0
ARC
  8
1
 62
7
  6
CONTINUOUS
 10
994.393777
 20
1819.483201
 40
2.000000
 50
90.000000
 51
180.000000
  0
LINE
  8
1
 62
7
  6
CONTINUOUS
 10
994.393777
 20
1821.483201
 11
1125.393777
 21
1821.483201
  0
ARC
  8
1
 62
7
  6
CONTINUOUS
 10
1125.393777
 20
1819.483201
 40
2.000000
 50
0.000000
 51
90.000000
  0
LINE
  8
1
 62
7
  6
CONTINUOUS
 10
1127.393777
 20
1819.483201
 11
1127.393777
 21
1688.483201
  0
ARC
  8
1
 62
7
  6
CONTINUOUS
 10
1125.393777
 20
1688.483201
 40
2.000000
 50
-90.000000
 51
0.000000
  0
LINE
  8
1
 62
7
  6
CONTINUOUS
 10
1125.393777
 20
1686.483201
 11
994.393777
 21
1686.483201
  0
LINE
  8
1
 62
7
  6
CONTINUOUS
 10
992.393777
 20
1688.483201
 11
992.393777
 21
1819.483201
  0
ARC
  8
1
 62
7
  6
CONTINUOUS
 10
994.393777
 20
1688.483201
 40
2.000000
 50
180.000000
 51
-90.000000
  0
TEXT
  8
8
 62
5
  6
CONTINUOUS
 10
767.252585
 20
1866.483201
 40
75.000000
 41
1.200000
  1
立体駐車場
  7
KANJI
 50
0.000000
 51
0.000000
  0
LINE
  8
8
 62
5
  6
CONTINUOUS
 10
962.281445
 20
1903.983201
 11
977.506109
 21
1903.983201
  0
LINE
  8
8
 62
5
  6
CONTINUOUS
 10
969.893777
 20
1896.370869
 11
969.893777
 21
1911.595534
  0
DIMENSION
  8
1
 62
7
  6
CONTINUOUS
  2
*D1
 10
1219.893777
 20
2126.899267
 11
969.893777
 21
2126.899267
 70
     0
  1
500
 13
1219.893777
 23
2013.983201
 14
719.893777
 24
2013.983201
 50
180.000000
  0
LINE
  8
8
 62
5
  6
CONTINUOUS
 10
1048.780238
 20
1753.983201
 11
1064.004903
 21
1753.983201
  0
LINE
  8
8
 62
5
  6
CONTINUOUS
 10
1056.392571
 20
1746.370869
 11
1056.392571
 21
1761.595534
  0
TEXT
  8
8
 62
5
  6
CONTINUOUS
 10
998.892571
 20
1691.483201
 40
125.000000
 41
1.000000
  1
満
  7
KANJI
 50
0.000000
 51
0.000000
  0
LINE
  8
8
 62
5
  6
CONTINUOUS
 10
1048.780238
 20
1443.983201
 11
1064.004903
 21
1443.983201
  0
LINE
  8
8
 62
5
  6
CONTINUOUS
 10
1056.392571
 20
1436.370869
 11
1056.392571
 21
1451.595534
  0
TEXT
  8
8
 62
5
  6
CONTINUOUS
 10
998.892571
 20
1381.483201
 40
125.000000
 41
1.000000
  1
満
  7
KANJI
 50
0.000000
 51
0.000000
  0
LINE
  8
8
 62
5
  6
CONTINUOUS
 10
1048.780238
 20
1598.983201
 11
1064.004903
 21
1598.983201
  0
LINE
  8
8
 62
5
  6
CONTINUOUS
 10
1056.392571
 20
1591.370869
 11
1056.392571
 21
1606.595534
  0
TEXT
  8
8
 62
5
  6
CONTINUOUS
 10
998.892571
 20
1536.483201
 40
125.000000
 41
1.000000
  1
空
  7
KANJI
 50
0.000000
 51
0.000000
  0
LINE
  8
8
 62
5
  6
CONTINUOUS
 10
1048.780238
 20
1288.983201
 11
1064.004903
 21
1288.983201
  0
LINE
  8
8
 62
5
  6
CONTINUOUS
 10
1056.392571
 20
1281.370869
 11
1056.392571
 21
1296.595534
  0
TEXT
  8
8
 62
5
  6
CONTINUOUS
 10
998.892571
 20
1226.483201
 40
125.000000
 41
1.000000
  1
空
  7
KANJI
 50
0.000000
 51
0.000000
  0
LINE
  8
128
 62
7
  6
CONTINUOUS
 10
3993.500000
 20
496.926452
 11
3240.837164
 21
496.926452
  0
TEXT
  8
128
 62
7
  6
CONTINUOUS
 10
3416.048094
 20
368.867402
 40
29.999922
 41
0.937500
  1
リレー接点入力 
  7
KANJI
 50
0.000000
 51
0.000000
  0
LINE
  8
128
 62
7
  6
CONTINUOUS
 10
3993.500000
 20
541.926452
 11
3240.837164
 21
541.926452
  0
TEXT
  8
1
 62
7
  6
CONTINUOUS
 10
3417.637072
 20
301.070473
 40
30.000000
 41
1.000000
  1
満車時　”満”赤色点灯表示
  7
KANJI
 50
0.000000
 51
0.000000
  0
LINE
  8
6
 62
14
  6
CONTINUOUS
 10
1815.956957
 20
385.983201
 11
1815.956957
 21
382.483201
  0
LINE
  8
6
 62
14
  6
CONTINUOUS
 10
1815.956957
 20
325.983201
 11
1815.956957
 21
322.483201
  0
LINE
  8
6
 62
14
  6
DASHDOT
 10
1825.514703
 20
383.983201
 11
1813.399210
 21
383.983201
  0
LINE
  8
6
 62
14
  6
DASHDOT
 10
1819.456957
 20
377.925455
 11
1819.456957
 21
390.040948
  0
LINE
  8
6
 62
14
  6
DASHDOT
 10
1825.514703
 20
323.983201
 11
1813.399210
 21
323.983201
  0
LINE
  8
6
 62
14
  6
DASHDOT
 10
1819.456957
 20
317.925455
 11
1819.456957
 21
330.040948
  0
LINE
  8
6
 62
14
  6
CONTINUOUS
 10
1896.456957
 20
318.983201
 11
1847.456957
 21
403.983201
  0
LINE
  8
6
 62
14
  6
CONTINUOUS
 10
1896.456957
 20
303.983201
 11
1896.456957
 21
318.983201
  0
LINE
  8
6
 62
14
  6
CONTINUOUS
 10
1806.456957
 20
403.983201
 11
1806.456957
 21
303.983201
  0
LINE
  8
6
 62
14
  6
DOT
 10
1895.256957
 20
318.486145
 11
1895.256957
 21
305.183201
  0
LINE
  8
6
 62
14
  6
DOT
 10
1846.959900
 20
402.783201
 11
1895.256957
 21
318.486145
  0
LINE
  8
6
 62
14
  6
CONTINUOUS
 10
1806.456957
 20
303.983201
 11
1896.456957
 21
303.983201
  0
LINE
  8
6
 62
14
  6
CONTINUOUS
 10
1806.456957
 20
403.983201
 11
1847.456957
 21
403.983201
  0
LINE
  8
6
 62
14
  6
DOT
 10
1895.256957
 20
305.183201
 11
1806.456957
 21
305.183201
  0
LINE
  8
6
 62
14
  6
DOT
 10
1806.456957
 20
402.783201
 11
1846.959900
 21
402.783201
  0
ARC
  8
6
 62
14
  6
CONTINUOUS
 10
1819.456957
 20
385.483201
 40
3.500000
 50
0.000000
 51
180.000000
  0
ARC
  8
6
 62
14
  6
CONTINUOUS
 10
1819.456957
 20
382.483201
 40
3.500000
 50
180.000000
 51
0.000000
  0
LINE
  8
6
 62
14
  6
CONTINUOUS
 10
1822.956957
 20
385.983201
 11
1822.956957
 21
382.483201
  0
ARC
  8
6
 62
14
  6
CONTINUOUS
 10
1819.456957
 20
325.483201
 40
3.500000
 50
0.000000
 51
180.000000
  0
ARC
  8
6
 62
14
  6
CONTINUOUS
 10
1819.456957
 20
322.483201
 40
3.500000
 50
180.000000
 51
0.000000
  0
LINE
  8
6
 62
14
  6
CONTINUOUS
 10
1822.956957
 20
325.983201
 11
1822.956957
 21
322.483201
  0
LINE
  8
6
 62
14
  6
DASHDOT
 10
1787.399210
 20
383.983201
 11
1799.514703
 21
383.983201
  0
LINE
  8
6
 62
14
  6
DASHDOT
 10
1793.456957
 20
377.925455
 11
1793.456957
 21
390.040948
  0
LINE
  8
6
 62
14
  6
DASHDOT
 10
1787.399210
 20
323.983201
 11
1799.514703
 21
323.983201
  0
LINE
  8
6
 62
14
  6
DASHDOT
 10
1793.456957
 20
317.925455
 11
1793.456957
 21
330.040948
  0
LINE
  8
6
 62
14
  6
CONTINUOUS
 10
1716.456957
 20
318.983201
 11
1765.456957
 21
403.983201
  0
LINE
  8
6
 62
14
  6
CONTINUOUS
 10
1716.456957
 20
303.983201
 11
1716.456957
 21
318.983201
  0
LINE
  8
6
 62
14
  6
CONTINUOUS
 10
1806.456957
 20
403.983201
 11
1806.456957
 21
303.983201
  0
LINE
  8
6
 62
14
  6
DOT
 10
1717.656957
 20
318.486145
 11
1717.656957
 21
305.183201
  0
LINE
  8
6
 62
14
  6
DOT
 10
1765.954013
 20
402.783201
 11
1717.656957
 21
318.486145
  0
LINE
  8
6
 62
14
  6
CONTINUOUS
 10
1806.456957
 20
303.983201
 11
1716.456957
 21
303.983201
  0
LINE
  8
6
 62
14
  6
CONTINUOUS
 10
1806.456957
 20
403.983201
 11
1765.456957
 21
403.983201
  0
LINE
  8
6
 62
14
  6
DOT
 10
1717.656957
 20
305.183201
 11
1806.456957
 21
305.183201
  0
LINE
  8
6
 62
14
  6
DOT
 10
1806.456957
 20
402.783201
 11
1765.954013
 21
402.783201
  0
ARC
  8
6
 62
14
  6
CONTINUOUS
 10
1793.456957
 20
385.483201
 40
3.500000
 50
0.000000
 51
180.000000
  0
ARC
  8
6
 62
14
  6
CONTINUOUS
 10
1793.456957
 20
382.483201
 40
3.500000
 50
180.000000
 51
0.000000
  0
LINE
  8
6
 62
14
  6
CONTINUOUS
 10
1796.956957
 20
385.983201
 11
1796.956957
 21
382.483201
  0
LINE
  8
6
 62
14
  6
CONTINUOUS
 10
1789.956957
 20
385.983201
 11
1789.956957
 21
382.483201
  0
ARC
  8
6
 62
14
  6
CONTINUOUS
 10
1793.456957
 20
325.483201
 40
3.500000
 50
0.000000
 51
180.000000
  0
ARC
  8
6
 62
14
  6
CONTINUOUS
 10
1793.456957
 20
322.483201
 40
3.500000
 50
180.000000
 51
0.000000
  0
LINE
  8
6
 62
14
  6
CONTINUOUS
 10
1796.956957
 20
325.983201
 11
1796.956957
 21
322.483201
  0
LINE
  8
6
 62
14
  6
CONTINUOUS
 10
1789.956957
 20
325.983201
 11
1789.956957
 21
322.483201
  0
LINE
  8
1
 62
7
  6
CONTINUOUS
 10
1780.456957
 20
2003.983201
 11
1832.456957
 21
2003.983201
  0
LINE
  8
1
 62
7
  6
CONTINUOUS
 10
1832.456957
 20
303.983201
 11
1780.456957
 21
303.983201
  0
CIRCLE
  8
1
 62
7
  6
CONTINUOUS
 10
1793.456957
 20
383.983201
 40
2.500000
  0
CIRCLE
  8
1
 62
7
  6
CONTINUOUS
 10
1793.456957
 20
383.983201
 40
2.000000
  0
LINE
  8
1
 62
7
  6
DASHDOT
 10
1790.502869
 20
383.983201
 11
1796.411044
 21
383.983201
  0
LINE
  8
1
 62
7
  6
DASHDOT
 10
1793.456957
 20
381.029114
 11
1793.456957
 21
386.937289
  0
CIRCLE
  8
1
 62
7
  6
CONTINUOUS
 10
1793.456957
 20
323.983201
 40
2.500000
  0
CIRCLE
  8
1
 62
7
  6
CONTINUOUS
 10
1793.456957
 20
323.983201
 40
2.000000
  0
LINE
  8
1
 62
7
  6
DASHDOT
 10
1790.502869
 20
323.983201
 11
1796.411044
 21
323.983201
  0
LINE
  8
1
 62
7
  6
DASHDOT
 10
1793.456957
 20
321.029114
 11
1793.456957
 21
326.937289
  0
CIRCLE
  8
1
 62
7
  6
CONTINUOUS
 10
1819.456957
 20
383.983201
 40
2.500000
  0
CIRCLE
  8
1
 62
7
  6
CONTINUOUS
 10
1819.456957
 20
383.983201
 40
2.000000
  0
LINE
  8
1
 62
7
  6
DASHDOT
 10
1822.411045
 20
383.983201
 11
1816.502870
 21
383.983201
  0
LINE
  8
1
 62
7
  6
DASHDOT
 10
1819.456957
 20
381.029114
 11
1819.456957
 21
386.937289
  0
CIRCLE
  8
1
 62
7
  6
CONTINUOUS
 10
1819.456957
 20
323.983201
 40
2.500000
  0
CIRCLE
  8
1
 62
7
  6
CONTINUOUS
 10
1819.456957
 20
323.983201
 40
2.000000
  0
LINE
  8
1
 62
7
  6
DASHDOT
 10
1822.411045
 20
323.983201
 11
1816.502870
 21
323.983201
  0
LINE
  8
1
 62
7
  6
DASHDOT
 10
1819.456957
 20
321.029114
 11
1819.456957
 21
326.937289
  0
LINE
  8
1
 62
7
  6
CONTINUOUS
 10
1832.456957
 20
2003.983201
 11
1832.456957
 21
403.983201
  0
LINE
  8
1
 62
7
  6
CONTINUOUS
 10
1780.456957
 20
403.983201
 11
1780.456957
 21
2003.983201
  0
LINE
  8
1
 62
7
  6
CONTINUOUS
 10
1831.456957
 20
2003.983201
 11
1831.456957
 21
403.983201
  0
LINE
  8
1
 62
7
  6
CONTINUOUS
 10
1781.456957
 20
403.983201
 11
1781.456957
 21
2003.983201
  0
DIMENSION
  8
1
 62
7
  6
CONTINUOUS
  2
*D2
 10
1832.456957
 20
2126.899267
 11
1806.456957
 21
2126.899267
 70
     0
  1
52
 13
1832.456957
 23
2013.983201
 14
1780.456957
 24
2013.983201
 50
180.000000
  0
TEXT
  8
128
 62
7
  6
CONTINUOUS
 10
3255.501748
 20
504.216416
 40
29.999922
 41
1.000000
  1
形　状
  7
KANJI
 50
0.000000
 51
0.000000
  0
TEXT
  8
128
 62
7
  6
CONTINUOUS
 10
3415.814244
 20
503.815532
 40
29.999922
 41
1.000000
  1
自立型
  7
KANJI
 50
0.000000
 51
0.000000
  0
TEXT
  8
1
 62
7
  6
CONTINUOUS
 10
3417.637072
 20
333.920415
 40
30.000000
 41
1.000000
  1
空車時　”空”緑色点灯表示
  7
KANJI
 50
0.000000
 51
0.000000
  0
TEXT
  8
128
 62
7
  6
CONTINUOUS
 10
3255.501748
 20
549.216416
 40
29.999922
 41
1.000000
  1
材　質
  7
KANJI
 50
0.000000
 51
0.000000
  0
TEXT
  8
128
 62
7
  6
CONTINUOUS
 10
3415.814244
 20
548.815532
 40
29.999922
 41
1.000000
  1
アルミハニカム製
  7
KANJI
 50
0.000000
 51
0.000000
  0
TEXT
  8
8
 62
5
  6
CONTINUOUS
 10
827.393777
 20
1691.483201
 40
125.000000
 41
0.500000
  1
RF
  7
KANJI
 50
0.000000
 51
0.000000
  0
TEXT
  8
8
 62
5
  6
CONTINUOUS
 10
827.393777
 20
1536.483201
 40
125.000000
 41
0.500000
  1
5F
  7
KANJI
 50
0.000000
 51
0.000000
  0
TEXT
  8
8
 62
5
  6
CONTINUOUS
 10
827.393777
 20
1381.483201
 40
125.000000
 41
0.500000
  1
4F
  7
KANJI
 50
0.000000
 51
0.000000
  0
TEXT
  8
8
 62
5
  6
CONTINUOUS
 10
827.393777
 20
1226.483201
 40
125.000000
 41
0.500000
  1
3F
  7
KANJI
 50
0.000000
 51
0.000000
  0
LINE
  8
1
 62
7
  6
CONTINUOUS
 10
719.893777
 20
2489.961872
 11
719.893777
 21
2490.961872
  0
LINE
  8
1
 62
7
  6
CONTINUOUS
 10
719.893777
 20
2490.961872
 11
1219.893777
 21
2490.961872
  0
LINE
  8
1
 62
7
  6
CONTINUOUS
 10
1219.893777
 20
2490.961872
 11
1219.893777
 21
2489.961872
  0
LINE
  8
1
 62
7
  6
CONTINUOUS
 10
1219.893777
 20
2489.961872
 11
719.893777
 21
2489.961872
  0
LINE
  8
1
 62
7
  6
CONTINUOUS
 10
719.893777
 20
2439.961872
 11
719.893777
 21
2438.961872
  0
LINE
  8
1
 62
7
  6
CONTINUOUS
 10
719.893777
 20
2438.961872
 11
1219.893777
 21
2438.961872
  0
LINE
  8
1
 62
7
  6
CONTINUOUS
 10
1219.893777
 20
2438.961872
 11
1219.893777
 21
2439.961872
  0
LINE
  8
1
 62
7
  6
CONTINUOUS
 10
1219.893777
 20
2439.961872
 11
719.893777
 21
2439.961872
  0
LINE
  8
6
 62
14
  6
CONTINUOUS
 10
719.593777
 20
2464.961872
 11
719.593777
 21
2491.461872
  0
LINE
  8
6
 62
14
  6
CONTINUOUS
 10
1220.193777
 20
2464.961872
 11
1220.193777
 21
2491.461872
  0
LINE
  8
6
 62
14
  6
CONTINUOUS
 10
719.593777
 20
2491.461872
 11
1220.193777
 21
2491.461872
  0
LINE
  8
6
 62
14
  6
CONTINUOUS
 10
718.393777
 20
2464.961872
 11
718.393777
 21
2554.961872
  0
LINE
  8
6
 62
14
  6
CONTINUOUS
 10
718.393777
 20
2554.961872
 11
1221.393777
 21
2554.961872
  0
LINE
  8
6
 62
14
  6
CONTINUOUS
 10
1221.393777
 20
2554.961872
 11
1221.393777
 21
2464.961872
  0
LINE
  8
6
 62
14
  6
CONTINUOUS
 10
1221.393777
 20
2464.961872
 11
1220.193777
 21
2464.961872
  0
LINE
  8
6
 62
14
  6
CONTINUOUS
 10
719.593777
 20
2464.961872
 11
718.393777
 21
2464.961872
  0
LINE
  8
6
 62
14
  6
DOT
 10
719.593777
 20
2491.461872
 11
719.593777
 21
2553.761872
  0
LINE
  8
6
 62
14
  6
DOT
 10
1220.193777
 20
2491.461872
 11
1220.193777
 21
2553.761872
  0
LINE
  8
6
 62
14
  6
CONTINUOUS
 10
723.484064
 20
2505.961872
 11
1210.240591
 21
2505.961872
  0
LINE
  8
6
 62
14
  6
DOT
 10
719.593777
 20
2546.961872
 11
1220.193777
 21
2546.961872
  0
LINE
  8
6
 62
14
  6
DOT
 10
719.593777
 20
2553.761872
 11
1220.193777
 21
2553.761872
  0
LINE
  8
6
 62
14
  6
CONTINUOUS
 10
719.593777
 20
2464.961872
 11
719.593777
 21
2438.461872
  0
LINE
  8
6
 62
14
  6
CONTINUOUS
 10
1220.193777
 20
2464.961872
 11
1220.193777
 21
2438.461872
  0
LINE
  8
6
 62
14
  6
CONTINUOUS
 10
719.593777
 20
2438.461872
 11
1220.193777
 21
2438.461872
  0
LINE
  8
6
 62
14
  6
CONTINUOUS
 10
718.393777
 20
2464.961872
 11
718.393777
 21
2374.961872
  0
LINE
  8
6
 62
14
  6
CONTINUOUS
 10
718.393777
 20
2374.961872
 11
1221.393777
 21
2374.961872
  0
LINE
  8
6
 62
14
  6
CONTINUOUS
 10
1221.393777
 20
2374.961872
 11
1221.393777
 21
2464.961872
  0
LINE
  8
6
 62
14
  6
CONTINUOUS
 10
1221.393777
 20
2464.961872
 11
1220.193777
 21
2464.961872
  0
LINE
  8
6
 62
14
  6
CONTINUOUS
 10
719.593777
 20
2464.961872
 11
718.393777
 21
2464.961872
  0
LINE
  8
6
 62
14
  6
DOT
 10
719.593777
 20
2438.461872
 11
719.593777
 21
2376.161872
  0
LINE
  8
6
 62
14
  6
DOT
 10
1220.193777
 20
2438.461872
 11
1220.193777
 21
2376.161872
  0
LINE
  8
6
 62
14
  6
CONTINUOUS
 10
723.484064
 20
2423.961872
 11
1210.240591
 21
2423.961872
  0
LINE
  8
6
 62
14
  6
DOT
 10
719.593777
 20
2382.961872
 11
1220.193777
 21
2382.961872
  0
LINE
  8
6
 62
14
  6
DOT
 10
719.593777
 20
2376.161872
 11
1220.193777
 21
2376.161872
  0
DIMENSION
  8
1
 62
7
  6
CONTINUOUS
  2
*D3
 10
1221.393777
 20
2264.088563
 11
969.893777
 21
2264.088563
 70
     0
  1
503
 13
1221.393777
 23
2364.961872
 14
718.393777
 24
2364.961872
 50
180.000000
  0
LINE
  8
6
 62
14
  6
CONTINUOUS
 10
2351.367491
 20
338.983201
 11
2351.367491
 21
303.983201
  0
LINE
  8
6
 62
14
  6
CONTINUOUS
 10
2316.367491
 20
338.983201
 11
2316.367491
 21
303.983201
  0
ARC
  8
6
 62
14
  6
CONTINUOUS
 10
2333.867491
 20
338.983201
 40
17.500000
 50
0.000000
 51
180.000000
  0
LINE
  8
6
 62
14
  6
CONTINUOUS
 10
2307.367491
 20
403.983201
 11
2307.367491
 21
303.983201
  0
LINE
  8
6
 62
14
  6
CONTINUOUS
 10
2810.367491
 20
403.983201
 11
2810.367491
 21
303.983201
  0
LINE
  8
6
 62
14
  6
CONTINUOUS
 10
2307.367491
 20
403.983201
 11
2810.367491
 21
403.983201
  0
LINE
  8
1
 62
7
  6
CONTINUOUS
 10
2808.867491
 20
2003.983201
 11
2308.867491
 21
2003.983201
  0
LINE
  8
1
 62
7
  6
CONTINUOUS
 10
2808.867491
 20
303.983201
 11
2808.867491
 21
2003.983201
  0
LINE
  8
1
 62
7
  6
CONTINUOUS
 10
2308.867491
 20
2003.983201
 11
2308.867491
 21
303.983201
  0
LINE
  8
1
 62
7
  6
CONTINUOUS
 10
2808.867491
 20
303.983201
 11
2308.867491
 21
303.983201
  0
LINE
  8
6
 62
14
  6
DOT
 10
2308.567491
 20
403.983201
 11
2308.567491
 21
305.183201
  0
LINE
  8
6
 62
14
  6
DOT
 10
2809.167491
 20
305.183201
 11
2809.167491
 21
403.983201
  0
LINE
  8
6
 62
14
  6
DOT
 10
2308.567491
 20
305.183201
 11
2316.367491
 21
305.183201
  0
LINE
  8
6
 62
14
  6
CONTINUOUS
 10
2307.367491
 20
303.983201
 11
2316.367491
 21
303.983201
  0
LINE
  8
6
 62
14
  6
CONTINUOUS
 10
2307.367491
 20
318.983201
 11
2316.367491
 21
318.983201
  0
LINE
  8
6
 62
14
  6
DOT
 10
2351.367491
 20
305.183201
 11
2809.167491
 21
305.183201
  0
LINE
  8
6
 62
14
  6
CONTINUOUS
 10
2351.367491
 20
303.983201
 11
2810.367491
 21
303.983201
  0
LINE
  8
6
 62
14
  6
CONTINUOUS
 10
2351.367491
 20
318.983201
 11
2810.367491
 21
318.983201
  0
CIRCLE
  8
11
 62
251
  6
CONTINUOUS
 10
2348.867491
 20
1566.483201
 40
2.500000
  0
LINE
  8
11
 62
251
  6
DASHDOT
 10
2353.121256
 20
1566.483201
 11
2344.613726
 21
1566.483201
  0
LINE
  8
11
 62
251
  6
DASHDOT
 10
2348.867491
 20
1562.229437
 11
2348.867491
 21
1570.736966
  0
CIRCLE
  8
11
 62
251
  6
CONTINUOUS
 10
2348.867491
 20
1191.483201
 40
2.500000
  0
LINE
  8
11
 62
251
  6
DASHDOT
 10
2353.121256
 20
1191.483201
 11
2344.613726
 21
1191.483201
  0
LINE
  8
11
 62
251
  6
DASHDOT
 10
2348.867491
 20
1192.229437
 11
2348.867491
 21
1195.736966
  0
CIRCLE
  8
11
 62
251
  6
CONTINUOUS
 10
2348.867491
 20
1941.483201
 40
2.500000
  0
LINE
  8
11
 62
251
  6
DASHDOT
 10
2353.121256
 20
1941.483201
 11
2344.613726
 21
1941.483201
  0
LINE
  8
11
 62
251
  6
DASHDOT
 10
2348.867491
 20
1937.229437
 11
2348.867491
 21
1945.736966
  0
CIRCLE
  8
11
 62
251
  6
CONTINUOUS
 10
2348.867491
 20
816.483201
 40
2.500000
  0
LINE
  8
11
 62
251
  6
DASHDOT
 10
2353.121256
 20
816.483201
 11
2344.613726
 21
816.483201
  0
LINE
  8
11
 62
251
  6
DASHDOT
 10
2348.867491
 20
812.229437
 11
2348.867491
 21
820.736966
  0
CIRCLE
  8
11
 62
251
  6
CONTINUOUS
 10
2588.867491
 20
1566.483201
 40
2.500000
  0
LINE
  8
11
 62
251
  6
DASHDOT
 10
2584.613726
 20
1566.483201
 11
2593.121255
 21
1566.483201
  0
LINE
  8
11
 62
251
  6
DASHDOT
 10
2588.867491
 20
1562.229437
 11
2588.867491
 21
1570.736966
  0
CIRCLE
  8
11
 62
251
  6
CONTINUOUS
 10
2588.867491
 20
1191.483201
 40
2.500000
  0
LINE
  8
11
 62
251
  6
DASHDOT
 10
2584.613726
 20
1191.483201
 11
2593.121255
 21
1191.483201
  0
LINE
  8
11
 62
251
  6
DASHDOT
 10
2588.867491
 20
1187.229437
 11
2588.867491
 21
1195.736966
  0
CIRCLE
  8
11
 62
251
  6
CONTINUOUS
 10
2588.867491
 20
1941.483201
 40
2.500000
  0
LINE
  8
11
 62
251
  6
DASHDOT
 10
2584.613726
 20
1941.483201
 11
2593.121255
 21
1941.483201
  0
LINE
  8
11
 62
251
  6
DASHDOT
 10
2588.867491
 20
1937.229437
 11
2588.867491
 21
1945.736966
  0
CIRCLE
  8
11
 62
251
  6
CONTINUOUS
 10
2588.867491
 20
816.483201
 40
2.500000
  0
LINE
  8
11
 62
251
  6
DASHDOT
 10
2584.613726
 20
816.483201
 11
2593.121255
 21
816.483201
  0
LINE
  8
11
 62
251
  6
DASHDOT
 10
2588.867491
 20
812.229437
 11
2588.867491
 21
820.736966
  0
CIRCLE
  8
11
 62
251
  6
CONTINUOUS
 10
2468.867491
 20
1963.983201
 40
2.500000
  0
LINE
  8
11
 62
251
  6
DASHDOT
 10
2464.613726
 20
1963.983201
 11
2473.121255
 21
1963.983201
  0
LINE
  8
11
 62
251
  6
DASHDOT
 10
2468.867491
 20
1959.729437
 11
2468.867491
 21
1968.236966
  0
CIRCLE
  8
11
 62
251
  6
CONTINUOUS
 10
2468.867491
 20
793.983201
 40
2.500000
  0
LINE
  8
11
 62
251
  6
DASHDOT
 10
2464.613726
 20
793.983201
 11
2473.121255
 21
793.983201
  0
LINE
  8
11
 62
251
  6
DASHDOT
 10
2468.867491
 20
789.729437
 11
2468.867491
 21
798.236966
  0
ARC
  8
11
 62
251
  6
CONTINUOUS
 10
2598.367491
 20
1973.483201
 40
3.000000
 50
0.000000
 51
90.000000
  0
LINE
  8
11
 62
251
  6
CONTINUOUS
 10
2339.367491
 20
1976.483201
 11
2598.367491
 21
1976.483201
  0
ARC
  8
11
 62
251
  6
CONTINUOUS
 10
2339.367491
 20
1973.483201
 40
3.000000
 50
90.000000
 51
180.000000
  0
LINE
  8
11
 62
251
  6
CONTINUOUS
 10
2336.367491
 20
784.483201
 11
2336.367491
 21
1973.483201
  0
ARC
  8
11
 62
251
  6
CONTINUOUS
 10
2339.367491
 20
784.483201
 40
3.000000
 50
180.000000
 51
-90.000000
  0
LINE
  8
11
 62
251
  6
CONTINUOUS
 10
2598.367491
 20
781.483201
 11
2339.367491
 21
781.483201
  0
LINE
  8
11
 62
251
  6
CONTINUOUS
 10
2601.367491
 20
1973.483201
 11
2601.367491
 21
784.483201
  0
ARC
  8
11
 62
251
  6
CONTINUOUS
 10
2598.367491
 20
784.483201
 40
3.000000
 50
-90.000000
 51
0.000000
  0
ARC
  8
11
 62
251
  6
CONTINUOUS
 10
2478.867491
 20
1417.483201
 40
1.500000
 50
0.000000
 51
180.000000
  0
LINE
  8
11
 62
251
  6
CONTINUOUS
 10
2477.367491
 20
1417.483201
 11
2477.367491
 21
1390.483201
  0
LINE
  8
11
 62
251
  6
CONTINUOUS
 10
2480.367491
 20
1417.483201
 11
2480.367491
 21
1390.483201
  0
ARC
  8
11
 62
251
  6
CONTINUOUS
 10
2478.867491
 20
1390.483201
 40
1.500000
 50
180.000000
 51
0.000000
  0
ARC
  8
11
 62
251
  6
CONTINUOUS
 10
2568.867491
 20
1417.483201
 40
1.500000
 50
0.000000
 51
180.000000
  0
LINE
  8
11
 62
251
  6
CONTINUOUS
 10
2567.367491
 20
1417.483201
 11
2567.367491
 21
1390.483201
  0
LINE
  8
11
 62
251
  6
CONTINUOUS
 10
2570.367491
 20
1417.483201
 11
2570.367491
 21
1390.483201
  0
ARC
  8
11
 62
251
  6
CONTINUOUS
 10
2568.867491
 20
1390.483201
 40
1.500000
 50
180.000000
 51
0.000000
  0
ARC
  8
11
 62
251
  6
CONTINUOUS
 10
2368.867491
 20
1417.483201
 40
1.500000
 50
0.000000
 51
180.000000
  0
LINE
  8
11
 62
251
  6
CONTINUOUS
 10
2370.367491
 20
1417.483201
 11
2370.367491
 21
1390.483201
  0
LINE
  8
11
 62
251
  6
CONTINUOUS
 10
2367.367491
 20
1417.483201
 11
2367.367491
 21
1390.483201
  0
ARC
  8
11
 62
251
  6
CONTINUOUS
 10
2368.867491
 20
1390.483201
 40
1.500000
 50
180.000000
 51
0.000000
  0
ARC
  8
11
 62
251
  6
CONTINUOUS
 10
2484.867491
 20
1417.483201
 40
1.500000
 50
0.000000
 51
180.000000
  0
LINE
  8
11
 62
251
  6
CONTINUOUS
 10
2483.367491
 20
1417.483201
 11
2483.367491
 21
1390.483201
  0
LINE
  8
11
 62
251
  6
CONTINUOUS
 10
2486.367491
 20
1417.483201
 11
2486.367491
 21
1390.483201
  0
ARC
  8
11
 62
251
  6
CONTINUOUS
 10
2484.867491
 20
1390.483201
 40
1.500000
 50
180.000000
 51
0.000000
  0
ARC
  8
11
 62
251
  6
CONTINUOUS
 10
2458.867491
 20
1417.483201
 40
1.500000
 50
0.000000
 51
180.000000
  0
LINE
  8
11
 62
251
  6
CONTINUOUS
 10
2460.367491
 20
1417.483201
 11
2460.367491
 21
1390.483201
  0
LINE
  8
11
 62
251
  6
CONTINUOUS
 10
2457.367491
 20
1417.483201
 11
2457.367491
 21
1390.483201
  0
ARC
  8
11
 62
251
  6
CONTINUOUS
 10
2458.867491
 20
1390.483201
 40
1.500000
 50
180.000000
 51
0.000000
  0
ARC
  8
11
 62
251
  6
CONTINUOUS
 10
2452.867491
 20
1417.483201
 40
1.500000
 50
0.000000
 51
180.000000
  0
LINE
  8
11
 62
251
  6
CONTINUOUS
 10
2454.367491
 20
1417.483201
 11
2454.367491
 21
1390.483201
  0
LINE
  8
11
 62
251
  6
CONTINUOUS
 10
2451.367491
 20
1417.483201
 11
2451.367491
 21
1390.483201
  0
ARC
  8
11
 62
251
  6
CONTINUOUS
 10
2452.867491
 20
1390.483201
 40
1.500000
 50
180.000000
 51
0.000000
  0
LINE
  8
11
 62
251
  6
DIVIDE
 10
2368.867491
 20
1388.983201
 11
2458.867491
 21
1388.983201
  0
LINE
  8
11
 62
251
  6
DIVIDE
 10
2458.867491
 20
1418.983201
 11
2368.867491
 21
1418.983201
  0
LINE
  8
11
 62
251
  6
DIVIDE
 10
2568.867491
 20
1388.983201
 11
2478.799400
 21
1388.983201
  0
LINE
  8
11
 62
251
  6
DIVIDE
 10
2478.867491
 20
1418.983201
 11
2568.867491
 21
1418.983201
  0
ARC
  8
11
 62
251
  6
CONTINUOUS
 10
2478.867491
 20
1367.483201
 40
1.500000
 50
0.000000
 51
180.000000
  0
LINE
  8
11
 62
251
  6
CONTINUOUS
 10
2477.367491
 20
1367.483201
 11
2477.367491
 21
1340.483201
  0
LINE
  8
11
 62
251
  6
CONTINUOUS
 10
2480.367491
 20
1367.483201
 11
2480.367491
 21
1340.483201
  0
ARC
  8
11
 62
251
  6
CONTINUOUS
 10
2478.867491
 20
1340.483201
 40
1.500000
 50
180.000000
 51
0.000000
  0
ARC
  8
11
 62
251
  6
CONTINUOUS
 10
2568.867491
 20
1367.483201
 40
1.500000
 50
0.000000
 51
180.000000
  0
LINE
  8
11
 62
251
  6
CONTINUOUS
 10
2567.367491
 20
1367.483201
 11
2567.367491
 21
1340.483201
  0
LINE
  8
11
 62
251
  6
CONTINUOUS
 10
2570.367491
 20
1367.483201
 11
2570.367491
 21
1340.483201
  0
ARC
  8
11
 62
251
  6
CONTINUOUS
 10
2568.867491
 20
1340.483201
 40
1.500000
 50
180.000000
 51
0.000000
  0
ARC
  8
11
 62
251
  6
CONTINUOUS
 10
2368.867491
 20
1367.483201
 40
1.500000
 50
0.000000
 51
180.000000
  0
LINE
  8
11
 62
251
  6
CONTINUOUS
 10
2370.367491
 20
1367.483201
 11
2370.367491
 21
1340.483201
  0
LINE
  8
11
 62
251
  6
CONTINUOUS
 10
2367.367491
 20
1367.483201
 11
2367.367491
 21
1340.483201
  0
ARC
  8
11
 62
251
  6
CONTINUOUS
 10
2368.867491
 20
1340.483201
 40
1.500000
 50
180.000000
 51
0.000000
  0
ARC
  8
11
 62
251
  6
CONTINUOUS
 10
2484.867491
 20
1367.483201
 40
1.500000
 50
0.000000
 51
180.000000
  0
LINE
  8
11
 62
251
  6
CONTINUOUS
 10
2483.367491
 20
1367.483201
 11
2483.367491
 21
1340.483201
  0
LINE
  8
11
 62
251
  6
CONTINUOUS
 10
2486.367491
 20
1367.483201
 11
2486.367491
 21
1340.483201
  0
ARC
  8
11
 62
251
  6
CONTINUOUS
 10
2484.867491
 20
1340.483201
 40
1.500000
 50
180.000000
 51
0.000000
  0
ARC
  8
11
 62
251
  6
CONTINUOUS
 10
2458.867491
 20
1367.483201
 40
1.500000
 50
0.000000
 51
180.000000
  0
LINE
  8
11
 62
251
  6
CONTINUOUS
 10
2460.367491
 20
1367.483201
 11
2460.367491
 21
1340.483201
  0
LINE
  8
11
 62
251
  6
CONTINUOUS
 10
2457.367491
 20
1367.483201
 11
2457.367491
 21
1340.483201
  0
ARC
  8
11
 62
251
  6
CONTINUOUS
 10
2458.867491
 20
1340.483201
 40
1.500000
 50
180.000000
 51
0.000000
  0
ARC
  8
11
 62
251
  6
CONTINUOUS
 10
2452.867491
 20
1367.483201
 40
1.500000
 50
0.000000
 51
180.000000
  0
LINE
  8
11
 62
251
  6
CONTINUOUS
 10
2454.367491
 20
1367.483201
 11
2454.367491
 21
1340.483201
  0
LINE
  8
11
 62
251
  6
CONTINUOUS
 10
2451.367491
 20
1367.483201
 11
2451.367491
 21
1340.483201
  0
ARC
  8
11
 62
251
  6
CONTINUOUS
 10
2452.867491
 20
1340.483201
 40
1.500000
 50
180.000000
 51
0.000000
  0
LINE
  8
11
 62
251
  6
DIVIDE
 10
2368.867491
 20
1338.983201
 11
2458.867491
 21
1338.983201
  0
LINE
  8
11
 62
251
  6
DIVIDE
 10
2458.867491
 20
1368.983201
 11
2368.867491
 21
1368.983201
  0
LINE
  8
11
 62
251
  6
DIVIDE
 10
2568.867491
 20
1338.983201
 11
2478.799400
 21
1338.983201
  0
LINE
  8
11
 62
251
  6
DIVIDE
 10
2478.867491
 20
1368.983201
 11
2568.867491
 21
1368.983201
  0
ARC
  8
11
 62
251
  6
CONTINUOUS
 10
2478.867491
 20
1892.483201
 40
1.500000
 50
0.000000
 51
180.000000
  0
LINE
  8
11
 62
251
  6
CONTINUOUS
 10
2477.367491
 20
1892.483201
 11
2477.367491
 21
1865.483201
  0
LINE
  8
11
 62
251
  6
CONTINUOUS
 10
2480.367491
 20
1892.483201
 11
2480.367491
 21
1865.483201
  0
ARC
  8
11
 62
251
  6
CONTINUOUS
 10
2478.867491
 20
1865.483201
 40
1.500000
 50
180.000000
 51
0.000000
  0
ARC
  8
11
 62
251
  6
CONTINUOUS
 10
2568.867491
 20
1892.483201
 40
1.500000
 50
0.000000
 51
180.000000
  0
LINE
  8
11
 62
251
  6
CONTINUOUS
 10
2567.367491
 20
1892.483201
 11
2567.367491
 21
1865.483201
  0
LINE
  8
11
 62
251
  6
CONTINUOUS
 10
2570.367491
 20
1892.483201
 11
2570.367491
 21
1865.483201
  0
ARC
  8
11
 62
251
  6
CONTINUOUS
 10
2568.867491
 20
1865.483201
 40
1.500000
 50
180.000000
 51
0.000000
  0
ARC
  8
11
 62
251
  6
CONTINUOUS
 10
2368.867491
 20
1892.483201
 40
1.500000
 50
0.000000
 51
180.000000
  0
LINE
  8
11
 62
251
  6
CONTINUOUS
 10
2370.367491
 20
1892.483201
 11
2370.367491
 21
1865.483201
  0
LINE
  8
11
 62
251
  6
CONTINUOUS
 10
2367.367491
 20
1892.483201
 11
2367.367491
 21
1865.483201
  0
ARC
  8
11
 62
251
  6
CONTINUOUS
 10
2368.867491
 20
1865.483201
 40
1.500000
 50
180.000000
 51
0.000000
  0
ARC
  8
11
 62
251
  6
CONTINUOUS
 10
2484.867491
 20
1892.483201
 40
1.500000
 50
0.000000
 51
180.000000
  0
LINE
  8
11
 62
251
  6
CONTINUOUS
 10
2483.367491
 20
1892.483201
 11
2483.367491
 21
1865.483201
  0
LINE
  8
11
 62
251
  6
CONTINUOUS
 10
2486.367491
 20
1892.483201
 11
2486.367491
 21
1865.483201
  0
ARC
  8
11
 62
251
  6
CONTINUOUS
 10
2484.867491
 20
1865.483201
 40
1.500000
 50
180.000000
 51
0.000000
  0
ARC
  8
11
 62
251
  6
CONTINUOUS
 10
2458.867491
 20
1892.483201
 40
1.500000
 50
0.000000
 51
180.000000
  0
LINE
  8
11
 62
251
  6
CONTINUOUS
 10
2460.367491
 20
1892.483201
 11
2460.367491
 21
1865.483201
  0
LINE
  8
11
 62
251
  6
CONTINUOUS
 10
2457.367491
 20
1892.483201
 11
2457.367491
 21
1865.483201
  0
ARC
  8
11
 62
251
  6
CONTINUOUS
 10
2458.867491
 20
1865.483201
 40
1.500000
 50
180.000000
 51
0.000000
  0
ARC
  8
11
 62
251
  6
CONTINUOUS
 10
2452.867491
 20
1892.483201
 40
1.500000
 50
0.000000
 51
180.000000
  0
LINE
  8
11
 62
251
  6
CONTINUOUS
 10
2454.367491
 20
1892.483201
 11
2454.367491
 21
1865.483201
  0
LINE
  8
11
 62
251
  6
CONTINUOUS
 10
2451.367491
 20
1892.483201
 11
2451.367491
 21
1865.483201
  0
ARC
  8
11
 62
251
  6
CONTINUOUS
 10
2452.867491
 20
1865.483201
 40
1.500000
 50
180.000000
 51
0.000000
  0
LINE
  8
11
 62
251
  6
DIVIDE
 10
2368.867491
 20
1863.983201
 11
2458.867491
 21
1863.983201
  0
LINE
  8
11
 62
251
  6
DIVIDE
 10
2458.867491
 20
1893.983201
 11
2368.867491
 21
1893.983201
  0
LINE
  8
11
 62
251
  6
DIVIDE
 10
2568.867491
 20
1863.983201
 11
2478.799400
 21
1863.983201
  0
LINE
  8
11
 62
251
  6
DIVIDE
 10
2478.867491
 20
1893.983201
 11
2568.867491
 21
1893.983201
  0
ARC
  8
11
 62
251
  6
CONTINUOUS
 10
2478.867491
 20
1842.483201
 40
1.500000
 50
0.000000
 51
180.000000
  0
LINE
  8
11
 62
251
  6
CONTINUOUS
 10
2477.367491
 20
1842.483201
 11
2477.367491
 21
1815.483201
  0
LINE
  8
11
 62
251
  6
CONTINUOUS
 10
2480.367491
 20
1842.483201
 11
2480.367491
 21
1815.483201
  0
ARC
  8
11
 62
251
  6
CONTINUOUS
 10
2478.867491
 20
1815.483201
 40
1.500000
 50
180.000000
 51
0.000000
  0
ARC
  8
11
 62
251
  6
CONTINUOUS
 10
2568.867491
 20
1842.483201
 40
1.500000
 50
0.000000
 51
180.000000
  0
LINE
  8
11
 62
251
  6
CONTINUOUS
 10
2567.367491
 20
1842.483201
 11
2567.367491
 21
1815.483201
  0
LINE
  8
11
 62
251
  6
CONTINUOUS
 10
2570.367491
 20
1842.483201
 11
2570.367491
 21
1815.483201
  0
ARC
  8
11
 62
251
  6
CONTINUOUS
 10
2568.867491
 20
1815.483201
 40
1.500000
 50
180.000000
 51
0.000000
  0
ARC
  8
11
 62
251
  6
CONTINUOUS
 10
2368.867491
 20
1842.483201
 40
1.500000
 50
0.000000
 51
180.000000
  0
LINE
  8
11
 62
251
  6
CONTINUOUS
 10
2370.367491
 20
1842.483201
 11
2370.367491
 21
1815.483201
  0
LINE
  8
11
 62
251
  6
CONTINUOUS
 10
2367.367491
 20
1842.483201
 11
2367.367491
 21
1815.483201
  0
ARC
  8
11
 62
251
  6
CONTINUOUS
 10
2368.867491
 20
1815.483201
 40
1.500000
 50
180.000000
 51
0.000000
  0
ARC
  8
11
 62
251
  6
CONTINUOUS
 10
2484.867491
 20
1842.483201
 40
1.500000
 50
0.000000
 51
180.000000
  0
LINE
  8
11
 62
251
  6
CONTINUOUS
 10
2483.367491
 20
1842.483201
 11
2483.367491
 21
1815.483201
  0
LINE
  8
11
 62
251
  6
CONTINUOUS
 10
2486.367491
 20
1842.483201
 11
2486.367491
 21
1815.483201
  0
ARC
  8
11
 62
251
  6
CONTINUOUS
 10
2484.867491
 20
1815.483201
 40
1.500000
 50
180.000000
 51
0.000000
  0
ARC
  8
11
 62
251
  6
CONTINUOUS
 10
2458.867491
 20
1842.483201
 40
1.500000
 50
0.000000
 51
180.000000
  0
LINE
  8
11
 62
251
  6
CONTINUOUS
 10
2460.367491
 20
1842.483201
 11
2460.367491
 21
1815.483201
  0
LINE
  8
11
 62
251
  6
CONTINUOUS
 10
2457.367491
 20
1842.483201
 11
2457.367491
 21
1815.483201
  0
ARC
  8
11
 62
251
  6
CONTINUOUS
 10
2458.867491
 20
1815.483201
 40
1.500000
 50
180.000000
 51
0.000000
  0
ARC
  8
11
 62
251
  6
CONTINUOUS
 10
2452.867491
 20
1842.483201
 40
1.500000
 50
0.000000
 51
180.000000
  0
LINE
  8
11
 62
251
  6
CONTINUOUS
 10
2454.367491
 20
1842.483201
 11
2454.367491
 21
1815.483201
  0
LINE
  8
11
 62
251
  6
CONTINUOUS
 10
2451.367491
 20
1842.483201
 11
2451.367491
 21
1815.483201
  0
ARC
  8
11
 62
251
  6
CONTINUOUS
 10
2452.867491
 20
1815.483201
 40
1.500000
 50
180.000000
 51
0.000000
  0
LINE
  8
11
 62
251
  6
DIVIDE
 10
2368.867491
 20
1813.983201
 11
2458.867491
 21
1813.983201
  0
LINE
  8
11
 62
251
  6
DIVIDE
 10
2458.867491
 20
1843.983201
 11
2368.867491
 21
1843.983201
  0
LINE
  8
11
 62
251
  6
DIVIDE
 10
2568.867491
 20
1813.983201
 11
2478.799400
 21
1813.983201
  0
LINE
  8
11
 62
251
  6
DIVIDE
 10
2478.867491
 20
1843.983201
 11
2568.867491
 21
1843.983201
  0
ARC
  8
11
 62
251
  6
CONTINUOUS
 10
2478.867491
 20
865.483201
 40
1.500000
 50
180.000000
 51
0.000000
  0
LINE
  8
11
 62
251
  6
CONTINUOUS
 10
2477.367491
 20
865.483201
 11
2477.367491
 21
892.483201
  0
LINE
  8
11
 62
251
  6
CONTINUOUS
 10
2480.367491
 20
865.483201
 11
2480.367491
 21
892.483201
  0
ARC
  8
11
 62
251
  6
CONTINUOUS
 10
2478.867491
 20
892.483201
 40
1.500000
 50
0.000000
 51
180.000000
  0
ARC
  8
11
 62
251
  6
CONTINUOUS
 10
2568.867491
 20
865.483201
 40
1.500000
 50
180.000000
 51
0.000000
  0
LINE
  8
11
 62
251
  6
CONTINUOUS
 10
2567.367491
 20
865.483201
 11
2567.367491
 21
892.483201
  0
LINE
  8
11
 62
251
  6
CONTINUOUS
 10
2570.367491
 20
865.483201
 11
2570.367491
 21
892.483201
  0
ARC
  8
11
 62
251
  6
CONTINUOUS
 10
2568.867491
 20
892.483201
 40
1.500000
 50
0.000000
 51
180.000000
  0
ARC
  8
11
 62
251
  6
CONTINUOUS
 10
2368.867491
 20
865.483201
 40
1.500000
 50
180.000000
 51
0.000000
  0
LINE
  8
11
 62
251
  6
CONTINUOUS
 10
2370.367491
 20
865.483201
 11
2370.367491
 21
892.483201
  0
LINE
  8
11
 62
251
  6
CONTINUOUS
 10
2367.367491
 20
865.483201
 11
2367.367491
 21
892.483201
  0
ARC
  8
11
 62
251
  6
CONTINUOUS
 10
2368.867491
 20
892.483201
 40
1.500000
 50
0.000000
 51
180.000000
  0
ARC
  8
11
 62
251
  6
CONTINUOUS
 10
2484.867491
 20
865.483201
 40
1.500000
 50
180.000000
 51
0.000000
  0
LINE
  8
11
 62
251
  6
CONTINUOUS
 10
2483.367491
 20
865.483201
 11
2483.367491
 21
892.483201
  0
LINE
  8
11
 62
251
  6
CONTINUOUS
 10
2486.367491
 20
865.483201
 11
2486.367491
 21
892.483201
  0
ARC
  8
11
 62
251
  6
CONTINUOUS
 10
2484.867491
 20
892.483201
 40
1.500000
 50
0.000000
 51
180.000000
  0
ARC
  8
11
 62
251
  6
CONTINUOUS
 10
2458.867491
 20
865.483201
 40
1.500000
 50
180.000000
 51
0.000000
  0
LINE
  8
11
 62
251
  6
CONTINUOUS
 10
2460.367491
 20
865.483201
 11
2460.367491
 21
892.483201
  0
LINE
  8
11
 62
251
  6
CONTINUOUS
 10
2457.367491
 20
865.483201
 11
2457.367491
 21
892.483201
  0
ARC
  8
11
 62
251
  6
CONTINUOUS
 10
2458.867491
 20
892.483201
 40
1.500000
 50
0.000000
 51
180.000000
  0
ARC
  8
11
 62
251
  6
CONTINUOUS
 10
2452.867491
 20
865.483201
 40
1.500000
 50
180.000000
 51
0.000000
  0
LINE
  8
11
 62
251
  6
CONTINUOUS
 10
2454.367491
 20
865.483201
 11
2454.367491
 21
892.483201
  0
LINE
  8
11
 62
251
  6
CONTINUOUS
 10
2451.367491
 20
865.483201
 11
2451.367491
 21
892.483201
  0
ARC
  8
11
 62
251
  6
CONTINUOUS
 10
2452.867491
 20
892.483201
 40
1.500000
 50
0.000000
 51
180.000000
  0
LINE
  8
11
 62
251
  6
DIVIDE
 10
2368.867491
 20
893.983201
 11
2458.867491
 21
893.983201
  0
LINE
  8
11
 62
251
  6
DIVIDE
 10
2458.867491
 20
863.983201
 11
2368.867491
 21
863.983201
  0
LINE
  8
11
 62
251
  6
DIVIDE
 10
2568.867491
 20
893.983201
 11
2478.799400
 21
893.983201
  0
LINE
  8
11
 62
251
  6
DIVIDE
 10
2478.867491
 20
863.983201
 11
2568.867491
 21
863.983201
  0
ARC
  8
11
 62
251
  6
CONTINUOUS
 10
2478.867491
 20
915.483201
 40
1.500000
 50
180.000000
 51
0.000000
  0
LINE
  8
11
 62
251
  6
CONTINUOUS
 10
2477.367491
 20
915.483201
 11
2477.367491
 21
942.483201
  0
LINE
  8
11
 62
251
  6
CONTINUOUS
 10
2480.367491
 20
915.483201
 11
2480.367491
 21
942.483201
  0
ARC
  8
11
 62
251
  6
CONTINUOUS
 10
2478.867491
 20
942.483201
 40
1.500000
 50
0.000000
 51
180.000000
  0
ARC
  8
11
 62
251
  6
CONTINUOUS
 10
2568.867491
 20
915.483201
 40
1.500000
 50
180.000000
 51
0.000000
  0
LINE
  8
11
 62
251
  6
CONTINUOUS
 10
2567.367491
 20
915.483201
 11
2567.367491
 21
942.483201
  0
LINE
  8
11
 62
251
  6
CONTINUOUS
 10
2570.367491
 20
915.483201
 11
2570.367491
 21
942.483201
  0
ARC
  8
11
 62
251
  6
CONTINUOUS
 10
2568.867491
 20
942.483201
 40
1.500000
 50
0.000000
 51
180.000000
  0
ARC
  8
11
 62
251
  6
CONTINUOUS
 10
2368.867491
 20
915.483201
 40
1.500000
 50
180.000000
 51
0.000000
  0
LINE
  8
11
 62
251
  6
CONTINUOUS
 10
2370.367491
 20
915.483201
 11
2370.367491
 21
942.483201
  0
LINE
  8
11
 62
251
  6
CONTINUOUS
 10
2367.367491
 20
915.483201
 11
2367.367491
 21
942.483201
  0
ARC
  8
11
 62
251
  6
CONTINUOUS
 10
2368.867491
 20
942.483201
 40
1.500000
 50
0.000000
 51
180.000000
  0
ARC
  8
11
 62
251
  6
CONTINUOUS
 10
2484.867491
 20
915.483201
 40
1.500000
 50
180.000000
 51
0.000000
  0
LINE
  8
11
 62
251
  6
CONTINUOUS
 10
2483.367491
 20
915.483201
 11
2483.367491
 21
942.483201
  0
LINE
  8
11
 62
251
  6
CONTINUOUS
 10
2486.367491
 20
915.483201
 11
2486.367491
 21
942.483201
  0
ARC
  8
11
 62
251
  6
CONTINUOUS
 10
2484.867491
 20
942.483201
 40
1.500000
 50
0.000000
 51
180.000000
  0
ARC
  8
11
 62
251
  6
CONTINUOUS
 10
2458.867491
 20
915.483201
 40
1.500000
 50
180.000000
 51
0.000000
  0
LINE
  8
11
 62
251
  6
CONTINUOUS
 10
2460.367491
 20
915.483201
 11
2460.367491
 21
942.483201
  0
LINE
  8
11
 62
251
  6
CONTINUOUS
 10
2457.367491
 20
915.483201
 11
2457.367491
 21
942.483201
  0
ARC
  8
11
 62
251
  6
CONTINUOUS
 10
2458.867491
 20
942.483201
 40
1.500000
 50
0.000000
 51
180.000000
  0
ARC
  8
11
 62
251
  6
CONTINUOUS
 10
2452.867491
 20
915.483201
 40
1.500000
 50
180.000000
 51
0.000000
  0
LINE
  8
11
 62
251
  6
CONTINUOUS
 10
2454.367491
 20
915.483201
 11
2454.367491
 21
942.483201
  0
LINE
  8
11
 62
251
  6
CONTINUOUS
 10
2451.367491
 20
915.483201
 11
2451.367491
 21
942.483201
  0
ARC
  8
11
 62
251
  6
CONTINUOUS
 10
2452.867491
 20
942.483201
 40
1.500000
 50
0.000000
 51
180.000000
  0
LINE
  8
11
 62
251
  6
DIVIDE
 10
2368.867491
 20
943.983201
 11
2458.867491
 21
943.983201
  0
LINE
  8
11
 62
251
  6
DIVIDE
 10
2458.867491
 20
913.983201
 11
2368.867491
 21
913.983201
  0
LINE
  8
11
 62
251
  6
DIVIDE
 10
2568.867491
 20
943.983201
 11
2478.799400
 21
943.983201
  0
LINE
  8
11
 62
251
  6
DIVIDE
 10
2478.867491
 20
913.983201
 11
2568.867491
 21
913.983201
  0
DIMENSION
  8
1
 62
7
  6
CONTINUOUS
  2
*D4
 10
1381.999202
 20
303.983201
 11
1381.999202
 21
1153.983201
 70
     0
  1
1700
 13
1229.893777
 23
303.983201
 14
1229.893777
 24
2003.983201
 50
90.000000
  0
DIMENSION
  8
1
 62
7
  6
CONTINUOUS
  2
*D5
 10
1381.999202
 20
2374.961872
 11
1381.999202
 21
2464.961872
 70
     0
  1
180
 13
1231.393777
 23
2374.961872
 14
1231.393777
 24
2554.961872
 50
90.000000
  0
TEXT
  8
128
 62
7
  6
CONTINUOUS
 10
3416.082418
 20
323.453092
 40
29.999996
 41
0.500000
  1
 
  7
KANJI
 50
0.000000
 51
0.000000
  0
TEXT
  8
128
 62
7
  6
DASHDOT
 10
3415.810602
 20
369.275942
 40
29.999996
 41
0.500000
  1
 
  7
KANJI
 50
0.000000
 51
0.000000
  0
TEXT
  8
128
 62
7
  6
CONTINUOUS
 10
3255.622050
 20
349.057060
 40
29.999922
 41
1.000000
  1
備　考
  7
KANJI
 50
0.000000
 51
0.000000
  0
TEXT
  8
128
 62
7
  6
CONTINUOUS
 10
3255.622050
 20
414.224842
 40
29.999922
 41
0.750000
  1
重  量
  7
KANJI
 50
0.000000
 51
0.000000
  0
TEXT
  8
128
 62
7
  6
CONTINUOUS
 10
3255.501748
 20
639.216416
 40
29.999922
 41
1.000000
  1
表示器
  7
KANJI
 50
0.000000
 51
0.000000
  0
LINE
  8
128
 62
7
  6
CONTINUOUS
 10
3993.500000
 20
676.926452
 11
3240.837164
 21
676.926452
  0
LINE
  8
128
 62
7
  6
CONTINUOUS
 10
3993.500000
 20
631.926452
 11
3240.837164
 21
631.926452
  0
LINE
  8
128
 62
7
  6
CONTINUOUS
 10
3993.500000
 20
586.926452
 11
3240.837164
 21
586.926452
  0
LINE
  8
128
 62
7
  6
CONTINUOUS
 10
3240.837164
 20
451.926452
 11
3993.500000
 21
451.926452
  0
LINE
  8
128
 62
7
  6
CONTINUOUS
 10
3993.500000
 20
406.926452
 11
3240.837164
 21
406.926452
  0
LINE
  8
128
 62
7
  6
CONTINUOUS
 10
3240.837164
 20
676.926452
 11
3240.837164
 21
226.926452
  0
LINE
  8
128
 62
7
  6
CONTINUOUS
 10
3399.073216
 20
676.926452
 11
3399.073216
 21
226.926452
  0
TEXT
  8
128
 62
7
  6
CONTINUOUS
 10
3255.735598
 20
459.669170
 40
29.999922
 41
1.000000
  1
電　源
  7
KANJI
 50
0.000000
 51
0.000000
  0
TEXT
  8
128
 62
7
  6
CONTINUOUS
 10
3416.048094
 20
458.867402
 40
29.999922
 41
0.571428
  1
AC100V/200V 兼用
  7
KANJI
 50
0.000000
 51
0.000000
  0
TEXT
  8
128
 62
7
  6
CONTINUOUS
 10
3415.814244
 20
638.815532
 40
29.999922
 41
0.650000
  1
□128　2色LED
  7
KANJI
 50
0.000000
 51
0.000000
  0
TEXT
  8
128
 62
7
  6
CONTINUOUS
 10
3415.934546
 20
415.427494
 40
29.999922
 41
0.500000
  1
10kg
  7
KANJI
 50
0.000000
 51
0.000000
  0
TEXT
  8
128
 62
7
  6
CONTINUOUS
 10
3255.766972
 20
594.497850
 40
29.999922
 41
1.000000
  1
表面処理
  7
KANJI
 50
0.000000
 51
0.000000
  0
TEXT
  8
128
 62
7
  6
CONTINUOUS
 10
3416.079468
 20
593.696082
 40
29.999922
 41
0.636364
  1
ｼﾙﾊﾞｰｱﾙﾏｲﾄ/ｼﾙﾊﾞｰ半艶焼付塗装
  7
KANJI
 50
0.000000
 51
0.000000
  0
TEXT
  8
1
 62
7
  6
CONTINUOUS
 10
2997.723531
 20
137.227333
 40
25.982250
 41
0.500000
  1
1/10
  7
KANJI
 50
0.000000
 51
0.000000
  0
ENDSEC
  0
EOF
